アットウィキロゴ
BPM:110
1
①□①□ |①--②|
□□□□ |---③|
□□□□ |-④-⑤|
□②□② |⑥-⑦-|

□□⑥□
□□⑤□
□④□③
□⑦□□
2
□①□① |①--②|
□□□□ |---③|
□□□□ |-④-⑤|
②□②□ |⑥-⑦-|

□⑥□□
□⑤□□
③□④□
□□⑦□
3
①□⑥□ |①--②|
□□⑤② |---③|
①④□③ |-④-⑤|
□⑦□② |⑥-⑦-|
4
□⑥□① |①--②|
②⑤□□ |---③|
③□④① |-④-⑤|
②□⑦□ |⑥-⑦-|
5
①□①□ |①--②|
□□□□ |---③|
□□□□ |-④-⑤|
□②□② |⑥-⑦-|

□□⑥□
□□⑤□
□④□③
□⑦□□
6
□①□① |①--②|
□□□□ |---③|
□□□□ |-④-⑤|
②□②□ |⑥-⑦-|

□⑥□□
□⑤□□
③□④□
□□⑦□
7
①□⑥□ |①--②|
□□⑤② |---③|
①④□③ |-④-⑤|
□⑦□② |⑥-⑦-|
8
□⑥□① |①--②|
②⑤□□ |---③|
③□④① |-④-⑤|
②□⑦□ |⑥-⑦-|
9
③□⑥⑤ |①--②|
□□③① |--③-|
□①□□ |--④-|
④□□② |⑤-⑥-|
10
□□□□ |--①-|
②□□□ |②--③|
□□□□ |-④--|
□①①□ |⑤---|

□□④□
□□□□
□□③□
□⑤⑤□
11
③□□□ |①--②|
□□③① |--③-|
□①□□ |--④-|
□□□② |⑤-⑥-|

□□□□
⑥□□□
□□□□
④□□⑤
12
①□⑤③ |①-②-|
□□□② |③--④|
□□④□ |-⑤--|
□⑥⑥□ |⑥---|
13
⑤⑥□③ |①--②|
①③□□ |--③-|
□□①□ |--④-|
②□□④ |⑤-⑥-|
14
□③□□ |----|
□□□① |①--②|
□②□□ |-③--|
□④④□ |④---|
15
□□□③ |①--②|
①③□□ |--③-|
⑥□①⑤ |--④-|
②④④□ |-⑤⑥-|
16
②□□① |①---|
□①②□ |②--③|
□□□□ |-④--|
□□□□ |⑤---|

⑤④□⑤
□⑤⑤□
□③□□
□□□□
17
□□□□ |①--②|
①□□① |③--④|
□①①□ |-⑤-⑥|
③②□② |⑦-⑧-|

□□⑦□
□□⑥□
□⑤□④
□⑧□□
18
□①□① |①--②|
□□□□ |③--④|
□□□□ |-⑤-⑥|
②□②③ |⑦-⑧-|

□⑦□□
□⑥□□
④□⑤□
□□⑧□
19
①□⑦③ |①--②|
□□⑥② |③--④|
①⑤□④ |-⑤-⑥|
□⑧□② |⑦-⑧-|
20
③⑦□① |①--②|
②⑥□□ |③--④|
④□⑤① |-⑤-⑥|
②□⑧□ |⑦-⑧-|
21
③□□□ |①--②|
□□③① |--③-|
□①□□ |④-⑤-|
□□□② |⑥-⑦-|

□□⑦⑥
□□□□
□④□□
⑤□□□
22
□□□□ |--①-|
②□□□ |②--③|
□□□□ |-④--|
□①①□ |⑤---|

□□④□
□□□□
□□③□
□⑤⑤□
23
③□□□ |①--②|
□□③① |--③-|
□①□□ |--④-|
□□□② |⑤-⑥-|

□□□□
⑥□□□
□□□□
④□□⑤
24
①□⑤③ |①-②-|
□□□② |③--④|
□□④□ |-⑤--|
□⑥⑥□ |⑥---|
25
⑤⑥□③ |①--②|
①③□□ |--③-|
□□①□ |--④-|
②□□④ |⑤-⑥-|
26
□③□□ |----|
□□□① |①--②|
□②□□ |-③--|
□④④□ |④---|
27
□□□③ |①--②|
①③□□ |--③-|
⑥□①⑤ |--④-|
②④④□ |--⑤⑥|
28
②④□① |①---|
□①②□ |②--③|
□③□□ |-④--|
□⑤⑤□ |⑤---|
29
□□□③ |①②-③|
①②□□ |-④-⑤|
④□□□ |⑥⑦⑧⑨|
□□⑤□ |----|

□□□□
⑨⑧□□
□⑦⑥□
□□□□
30
③□□□ |①②-③|
□□②① |-④-⑤|
□④□□ |-⑥-⑦|
□□□□ |-⑧-⑨|

□□⑤⑤
⑥⑥⑨□
□□⑦⑦
⑧⑧□□
31
□④□□ |①②-③|
③□□□ |④--⑤|
□①□□ |-⑥--|
□□②□ |⑦---|

□□⑥□
□□□□
□□⑤□
□⑦⑦□
32
②④□① |①---|
□□□□ |②--③|
□③□□ |-④--|
①⑤⑤② |⑤---|
33
③□□□ |①②-③|
□□②① |-④-⑤|
□□□④ |⑥⑦⑧⑨|
□⑤□□ |----|

□□□□
□□⑧⑨
□⑥⑦□
□□□□
34
□□□③ |①②-③|
①②□□ |-④-⑤|
□□④□ |-⑥-⑦|
□□□□ |-⑧-⑨|

⑤⑤□□
□⑨⑥⑥
⑦⑦□□
□□⑧⑧
35
③⑤□③ |①②-③|
□□□□ |---④|
□④①□ |-⑤--|
□②□□ |⑥--⑦|

□□□□
□□□□
□⑦□□
⑦⑥⑥□
36
□□□□ |①②-③|
②□□③ |--④-|
□□①□ |⑤-⑥-|
□□□① |⑦-⑧-|

□④④□
□⑤⑤⑧
□⑥⑥□
⑧⑦⑦□
37
③□□③ |①②-③|
①③③□ |---④|
②□□② |-⑤--|
□□□① |⑥-⑦-|

⑦□⑤⑦
□□□□
□□④□
□⑥⑥□
38
□③□□ |①---|
□□□□ |②-③-|
□③□□ |④⑤-⑥|
①②②① |-⑦-⑧|

⑦⑧⑧⑥
□⑤④□
⑦□□⑥
□□□□
39
⑧□□⑧ |-①②③|
⑥□①⑤ |④⑤⑥-|
□②□□ |----|
④⑦⑦③ |⑦-⑧-|
40
□□④□ |①---|
②□□□ |②--③|
□□③□ |-④--|
①⑤⑤① |⑤---|
41
③⑦④① |①②-③|
⑥□②⑤ |-④-⑤|
⑤②□⑥ |-⑥-⑦|
①④⑦③ |----|
42
①④⑦③ |①②-③|
⑤②□⑥ |-④-⑤|
⑥□②⑤ |-⑥-⑦|
③⑦④① |---⑧|

□□□□
□⑧□□
□□□□
□□□□
43
①⑨⑨② |①-②③|
④□③⑥ |④⑤⑥⑦|
⑩⑤⑦⑩ |-⑧-⑨|
⑪⑧⑧⑪ |-⑩⑪-|
44
□②②□ |----|
□□□□ |①-②-|
□□□□ |③-④-|
□①①□ |⑤-⑥-|

□□□□
⑥③③□
□④④□
□⑤⑤⑥
45
③□□③ |①②-③|
□③③① |---④|
②□□② |-⑤--|
①□□□ |⑥-⑦-|

⑦⑤□⑦
□□□□
□④□□
□⑥⑥□
46
□□③□ |①---|
□④⑤□ |②-③-|
□□③□ |④⑤-⑥|
①②②① |-⑦-⑧|

⑥⑧⑧⑦
□□□□
⑥□□⑦
□□□□
47
□□□□ |-①-②|
④□□⑤ |③④⑤-|
□①□□ |----|
②□①③ |⑥-⑦-|

⑦□□⑦
□□□□
□□□□
□⑥⑥□
48
□□④□ |①---|
②□□□ |②--③|
□□③□ |-④--|
①⑤⑤① |⑤---|
49
③③③□ |①-②-|
②①②□ |③-④⑤|
□□□□ |-⑥⑦⑧|
□□□□ |⑨---|

□□□□
□⑦⑧□
⑥④⑤⑨
□□□□
50
②③②① |①-②-|
③②③① |③--④|
②③②③ |-⑤⑥-|
①①③④ |⑦-⑧-|

⑧□⑥⑤
□□⑧□
□⑧□□
⑦□□□
51
□□□□ |①---|
□①□② |②--③|
□□□① |-④--|
□□①② |⑤-⑥-|

□④□□
□□□□
□③□□
□⑤⑤⑥
52
□□□① |①---|
②□□□ |②--③|
□□□① |-④--|
②□□□ |⑤-⑥-|

□□④□
□□□□
□□③□
⑥⑤⑤□
53
①□□□ |①---|
□□□② |②--③|
①□□□ |-④--|
□□□② |⑤-⑥-|

□④□□
□□□□
□③□□
⑥⑤⑤⑥
54
□③②① |①-②-|
□③②① |③---|
□□□□ |④-⑤-|
□□□□ |⑥---|

□⑥⑤④
□⑥⑤④
□⑥⑤④
□□□□
55
①□□□ |①②③-----|
②□□□ |----|
③□□□ |----|
□③②① |----|
最終更新:2024年01月23日 17:39