アットウィキロゴ
BPM:125-180
1
□□□□ |----|
□□□□ |----|
□□□□ |----|
□□①□ |①---|
2
□□□□ |①---|
③□①① |--②-|
□□□□ |③---|
②□□④ |--④-|
3
③□□□ |①---|
□□□① |--②-|
□②④□ |③---|
□□□□ |④---|
4
□□①① |①---|
③□□□ |--②-|
□□□□ |③---|
②□□④ |--④-|
5
②□□□ |①---|
□□□① |--②-|
□③□④ |③---|
□□□□ |④---|
6
□□①① |①---|
③□□□ |--②-|
□□□□ |③---|
②□□④ |--④-|
7
□③□□ |①---|
□□□① |--②-|
②□□④ |③---|
□□□□ |④---|
8
□④①① |①---|
□□□□ |--②-|
□②③□ |③---|
□□④□ |④---|
9
□□③□ |①---|
①□□② |②---|
②□□① |③---|
□③□□ |----|
10
□□□□ |(180)----|
□□□□ |----|
□□□□ |----|
□□□□ |----|
11
□□□□ |----|
□□□□ |----|
□□□□ |----|
□□□□ |----|
12
□□□□ |----|
□□□□ |----|
□□□□ |----|
□□□□ |----|
13
①⑦④□ |①②③-|
□②⑧⑤ |④⑤⑥-|
③⑨⑥□ |⑦⑧⑨-|
□□□□ |⑩-⑪-|

⑪□□□
□□□□
□□□⑩
□□⑩□
14
□□□② |①-②-|
□□□□ |③---|
①□□□ |④-⑤⑥|
③①□③ |⑦⑧⑨⑩|

□□④□
□⑥□⑤
⑧④⑦□
□⑩⑨□
15
□④⑦① |①②③-|
⑤⑧②□ |④⑤⑥-|
□⑥⑨③ |⑦⑧⑨-|
□□□□ |⑩-⑪-|

□□□⑪
□□□□
⑩□□□
□⑩□□
16
②□□□ |①-②-|
□□□□ |③---|
□□□① |④-⑤⑥|
③□①③ |⑦⑧⑨⑩|

□⑨⑩⑧
□④□⑥
⑤□④□
□⑦□□
17
□⑩□□ |①②③-|
①⑦④⑪ |④⑤⑥-|
□②⑧⑤ |⑦⑧⑨-|
③⑨⑥⑩ |⑩-⑪-|
18
□□①□ |①-②-|
②□□□ |③---|
③□□③ |④-⑤⑥|
①□□□ |⑦⑧⑨⑩|

④⑧⑨④
⑩□⑤□
□⑥□□
□□⑦□
19
□□⑩□ |①②③-|
⑪④⑦① |④⑤⑥-|
⑤⑧②□ |⑦⑧⑨-|
⑩⑥⑨③ |⑩-⑪-|
20
□①□□ |①-②-|
□□□② |③---|
③□□③ |④⑤⑥⑦|
□□□① |⑧⑨⑩⑪|

⑧□□⑦
□⑥⑪□
□⑩⑤□
□④□⑨
21
⑧③⑤□ |①-②-|
①⑤⑧② |③-④-|
③⑧④② |⑤-⑥⑦|
①⑥⑦⑧ |--⑧-|
22
⑦④④② |--①-|
②□⑦□ |②-③-|
④⑦③① |④-⑤⑥|
□⑤⑥⑦ |--⑦-|
23
⑧⑤□④ |--①②|
⑦③□⑧ |③--④|
⑧□②① |⑤⑥⑦-|
⑦□⑥⑧ |--⑧-|
24
⑨⑥□⑨ |--①②|
□③⑤⑧ |③-④⑤|
□④②□ |⑥-⑦-|
⑦①□□ |-⑧⑨-|
25
□□□□ |①-②-|
□③□□ |③-④-|
□□②④ |⑤-⑥⑦|
□□①① |⑧-⑨-|

⑨⑤⑤□
□□⑧⑦
⑨□□□
⑥□□⑨
26
□⑤④③ |--①-|
②□□⑧ |②-③④|
□⑦⑥② |⑤--⑥|
□□①⑧ |⑦-⑧-|
27
□□□□ |①-②-|
□②②□ |③-④-|
④□□③ |⑤-⑥⑦|
④①①□ |⑧-⑨-|

□⑤⑦⑥
⑤□□□
□⑧□□
□⑨⑨□
28
①⑤⑥⑨ |①--②|
⑩③②⑦ |③-④-|
□□④□ |⑤⑥⑦-|
□⑧⑧① |⑧-⑨⑩|
29
□⑥③⑦ |①---|
□②②④ |②-③-|
□□⑦① |④-⑤-|
⑤□□⑤ |⑥-⑦-|
30
②⑥⑤□ |①---|
□□③⑦ |②-③-|
①③⑦④ |④-⑤-|
⑤①②□ |⑥-⑦-|
31
⑤□④⑥ |①---|
□②②□ |②---|
①④□⑥ |③-④-|
□①□③ |⑤-⑥-|
32
⑥③⑤□ |①-②-|
⑦⑧②⑤ |③-④-|
④⑤②□ |--⑤-|
①①④④ |⑥-⑦⑧|
33
□②④③ |①---|
□⑥①⑦ |②-③-|
□□②⑦ |④-⑤-|
⑤□□⑤ |⑥-⑦-|
34
②⑥④② |①---|
⑦⑧②□ |②-③-|
①③④⑥ |④-⑤-|
⑤①⑥□ |⑥-⑦⑧|
35
②⑥④④ |①---|
□□□① |②-③-|
⑤□③□ |④-⑤-|
□□⑦① |⑥-⑦-|
36
□□□□ |①---|
②□□① |②-③-|
□□②① |④-⑤-|
③□□② |⑥-⑦⑧|

⑥□④④
□□⑧⑦
□□□□
□⑤□□
37
□③⑤□ |①-②-|
⑤①□□ |③-④-|
②③□□ |⑤---|
④⑤□③ |⑥--⑦|

⑥□□⑦
□□⑦□
⑦□□⑥
□□⑥□
38
□②③□ |--①-|
□①□① |②---|
④□②④ |③---|
③③④① |④---|
39
①③□□ |①-②-|
③⑤□⑤ |③-④-|
□②③□ |⑤---|
⑤④□① |⑥--⑦|

⑦□⑥⑦
□□⑦□
⑥□□⑥
□□□□
40
□①□□ |--①-|
③□④③ |②---|
□④②□ |③---|
③②①③ |④---|
41
①①⑤① |①-②-|
⑤③□□ |③-④-|
③□③□ |⑤---|
④②□□ |⑥--⑦|

⑦□□⑦
□□⑦□
□⑥□⑥
□□⑥□
42
□①③□ |--①-|
□③□② |②---|
②□③□ |③---|
④④□① |④---|
43
④①⑦① |①-②-|
②⑤□④ |③-④-|
⑥③□⑥ |⑤-⑥-|
⑦⑦③□ |⑦---|
44
③①□④ |①-②-|
①⑥④□ |③-④-|
⑤③②⑤ |⑤---|
□□⑥② |⑥---|
45
③①□□ |①-②-|
⑤⑥□□ |③-④-|
⑤③□□ |⑤---|
②④□□ |--⑥-|
46
④①□□ |①---|
□□□□ |--②-|
□②②□ |--③-|
□③□□ |④---|
47
□□□□ |①---|
①□□□ |----|
□□□□ |----|
①□□② |②---|
48
□①①④ |①---|
□□□② |--②-|
□□□② |--③-|
□□③□ |④---|
49
①③□□ |①---|
③①□□ |--②-|
①②①□ |----|
②□□□ |③---|
50
□□□③ |①---|
□①③① |--②-|
□□①② |----|
□□②① |③---|
51
□④④□ |①---|
③□□③ |②-③-|
④①①④ |----|
②□□② |④---|
52
②□□③ |①-②③|
⑥①①⑥ |-④⑤-|
⑦④⑤⑦ |⑥---|
⑥①①⑥ |⑦---|
53
□□①① |①-②③|
□④⑤□ |-④⑤-|
□□□□ |⑥-⑦⑧|
□②③□ |-⑨⑩-|

⑩⑥□⑨
⑥□□□
□⑧⑦□
□□□□
54
□⑥□□ |①-②③|
⑧④⑤① |-④⑤-|
⑥□⑦① |⑥-⑦-|
⑧②③⑨ |⑧-⑨-|
55
①□□⑥ |①-②③|
⑨□⑥⑩ |-④⑤-|
⑤①□④ |⑥-⑦⑧|
⑦③②⑧ |-⑨⑩-|
56
①①⑧□ |①-②③|
⑦⑤④□ |-④⑤-|
□⑨⑥⑧ |⑥-⑦-|
□③②⑥ |⑧-⑨-|
57
□□□① |①-②③|
□④⑤① |-④⑤-|
□□□□ |⑥-⑦⑧|
□②③□ |-⑨⑩-|

⑩⑥□⑨
⑥□□□
⑧□□⑦
□□□□
58
□⑧□□ |①-②③|
⑥④⑤① |-④⑤-|
⑧□①⑨ |⑥-⑦-|
②⑥⑦③ |⑧-⑨-|
59
①⑦⑥□ |①-②③|
□⑤④⑥ |-④⑤-|
⑦①□⑦ |⑥---|
③⑥□② |⑦---|
60
②④□① |①---|
①③②③ |②---|
④②①④ |③---|
□□③□ |④---|
61
□□□① |①-②③|
□□④□ |-④⑤-|
□⑤①□ |⑥-⑦⑧|
②□□③ |-⑨⑩-|

□□⑥⑨
□⑩□⑥
□□□⑧
□⑦□□
62
□⑤□□ |①-②③|
□□④□ |-④⑤-|
②□①□ |⑥-⑦-|
□□③① |⑧-⑨-|

⑧□⑥□
□⑧□□
□□□⑥
□⑦□⑨
63
⑨④□□ |①-②③|
①⑧⑤□ |-④⑤-|
⑥③⑩⑦ |⑥-⑦⑧|
①⑥②□ |-⑨⑩-|
64
□④□□ |①-②③|
①□⑤□ |-④⑤-|
□①□□ |⑥-⑦-|
③□②□ |⑧-⑨-|

□□⑧□
□□□⑧
⑥⑨□□
□⑥□⑦
65
□⑧⑩① |①-②③|
□□④⑦ |-④⑤-|
□⑨⑥① |⑥-⑦⑧|
②⑤③⑥ |-⑨⑩-|
66
②□□③ |①-②-|
□④□□ |③-④-|
□□④① |⑤-⑥-|
③□①□ |⑦-⑧-|

□⑦□□
⑦□□⑤
⑤□□□
□□⑧⑥
67
①□③□ |①-②③|
□□□④ |-④⑤-|
⑤①□□ |⑥-⑦-|
□②□□ |⑧-⑨-|

□□□⑧
□⑥□□
□□⑧□
⑨□□⑦
68
①④③⑦ |①-②-|
⑤□⑦□ |③-④-|
□①□③ |⑤-⑥-|
⑧⑤②⑥ |⑦-⑧-|
69
①⑦④□ |①②③-|
□②⑧⑤ |④⑤⑥-|
③⑨⑥□ |⑦⑧⑨-|
□□□□ |⑩-⑪-|

⑪□□□
□□□□
□□□⑩
□□⑩□
70
□□□② |①-②-|
□□□□ |③---|
①□□□ |④-⑤⑥|
③①□③ |⑦⑧⑨⑩|

□□④□
□⑥□⑤
⑧④⑦□
□⑩⑨□
71
□④⑦① |①②③-|
⑤⑧②□ |④⑤⑥-|
□⑥⑨③ |⑦⑧⑨-|
□□□□ |⑩-⑪-|

□□□⑪
□□□□
⑩□□□
□⑩□□
72
②□□□ |①-②-|
□□□□ |③---|
□□□① |④-⑤⑥|
③□①③ |⑦⑧⑨⑩|

□⑨⑩⑧
□④□⑥
⑤□④□
□⑦□□
73
□⑩□□ |①②③-|
①⑦④⑪ |④⑤⑥-|
□②⑧⑤ |⑦⑧⑨-|
③⑨⑥⑩ |⑩-⑪-|
74
□□①□ |①-②-|
②□□□ |③---|
③□□③ |④-⑤⑥|
①□□□ |⑦⑧⑨⑩|

④⑧⑨④
⑩□⑤□
□⑥□□
□□⑦□
75
□□⑩□ |①②③-|
⑪④⑦① |④⑤⑥-|
⑤⑧②□ |⑦⑧⑨-|
⑩⑥⑨③ |⑩-⑪-|
76
□①□□ |①-②-|
□□□② |③---|
③□□③ |④⑤⑥⑦|
□□□① |⑧⑨⑩⑪|

⑧□□⑦
□⑥⑪□
□⑩⑤□
□④□⑨
77
□①①□ |①---|
□□□□ |----|
□□□□ |----|
□□□□ |----|
最終更新:2024年08月29日 07:16