アットウィキロゴ
ちくわパフェだよ☆CKP (Yvya Remix)
Remixed by BEMANI Sound Team "Yvya"

EXTREME

Level: 10.4
BPM:205
Notes:986

1
□□□□ |①---|
③□□□ |②---|
②□□□ |③---|
①□□□

2
□□□□ |①---|
□□□③ |②---|
□□□② |③---|
□□□①

3
□□□□ |①---|
□③□□ |②---|
□②□□ |③---|
□①□□

4
□□□□ |①---|
□□③□ |②---|
□□②□ |③---|
□□①□

5
③□□□ |①---|
②□□□ |②---|
①□□□ |③---|
□□③①

6
□□□③ |①---|
□□□② |②---|
□□□① |③---|
□②□□

7
□③□□ |①---|
□②□□ |②---|
□①□□ |③---|
①□□③

8
□□③□ |①---|
□□②□ |②---|
□□①④ |③-④-|
③②①□

9
□③□③ |①---|
□①□□ |②---|
□□□□ |③---|
□□②②

10
③□③□ |①---|
□□①□ |②---|
□□□□ |③---|
②②□□

11
□②□□ |①---|
②□□① |②---|
□②①□ |③---|
③□□①

12
③□□① |①---|
□②①□ |②---|
②□④① |③-④-|
□②□□

13
□③□③ |①---|
①□□□ |②---|
□□□□ |③---|
□□②②

14
③□③□ |①---|
□□□① |②---|
□□□□ |③---|
②②□□

15
□□□□ |①②③④|
①②③④ |⑤⑥⑦⑧|
⑤⑥⑦⑧ |⑨⑩⑪⑫|
⑨⑩⑪⑫

16
①⑥⑥② |①---|
③□□④ |②③④⑤|
⑤□□□ |⑥---|
□□□□

17
□□□⑤ |①-②-|
□□③□ |③-④-|
□②⑥□ |--⑤-|
①□④□ |--⑥-|

18
①①□□ |--①-|
□④③② |--②③|
⑥□□⑤ |④-⑤-|
□□⑦□ |⑥-⑦-|

19
⑤②□③ |①-②-|
□□④□ |③-④-|
□①□□ |--⑤-|
□□□⑥ |--⑥-|

20
□□①□ |--①-|
□⑦⑧⑨ |②-③-|
②④⑤⑥ |④-⑤-⑥-|
□□③□ |⑦-⑧-⑨-|

21
①②□② |①---|
①□□□ |----|
□□□□ |----|
③□③□ |②-③-|

22
□□□□ |----|
③□②□ |----|
□□□④ |----|
□①□□ |①②③④|

23
①⑨⑩② |①②③④|
⑮③⑭⑥ |⑤⑥⑦⑧|
⑦⑪④⑯ |⑨⑩⑪⑫|
⑤⑬⑫⑧ |⑬⑭⑮⑯|

24
①⑨⑨② |①②③④|
□③⑩⑥ |⑤⑥⑦⑧|
⑦⑪④□ |⑨---|
⑤□□⑧ |--⑩⑪|

25
□□④□ |①---|
□□□③ |②---|
□□□② |③---|
□□①□ |④---|

26
□④□□ |①---|
③□□□ |②---|
②□□□ |③---|
□①□□ |④---|

27
□□④□ |①---|
□③□□ |②---|
□□②□ |③---|
□①□□ |④---|

28
③④⑤③ |①-②-|
□⑧②② |--③-|
③⑥⑦③ |--④⑤|
①①□⑨ |⑥⑦⑧⑨|

29
⑧⑨⑩□ |①-②-|
①□⑦② |③④⑤-|
⑥□□□ |⑥-⑦-|
③④⑤□ |⑧⑨⑩-|

30
□⑩⑨⑧ |①-②-|
②□□⑥ |③④⑤-|
⑦□□① |⑥-⑦-|
□⑤④③ |⑧⑨⑩-|

31
⑩⑨⑧□ |①-②-|
□⑦②□ |③④⑤-|
□③④⑤ |⑥-⑦-|
①□□⑥ |⑧⑨⑩-|

32
⑧□⑦⑤ |①-②-|
②□③② |③-④-|
⑤⑦④⑧ |⑤-⑥-|
④①①⑥ |⑦-⑧-|

33
□①□□ |①---|
②□□□ |②---|
③□□□ |③---|
□④①□ |④---|

34
□□①□ |①---|
□□□② |②---|
□□□③ |③---|
□□④□ |④---|

35
⑤⑨②⑩ |①②③④|
⑬①⑥④ |⑤⑥⑦⑧|
⑪⑦⑫⑭ |⑨⑩⑪⑫|
⑮③⑯⑧ |⑬⑭⑮⑯|

36
③□②□ |①-②-|
⑤①④□ |--③-|
⑦□⑥□ |--④⑤|
⑨②⑧③ |⑥⑦⑧⑨|

37
⑥⑧③① |①-②-|
□⑥□① |③-④-|
⑧②⑦③ |⑤-⑥-|
□④□⑤ |⑦-⑧-|

38
□□②⑥ |--①-|
①⑤④② |②-③-|
□□□⑥ |④-⑤-|
③□□④ |⑥---|

39
□①③□ |①-②-|
③⑧⑥□ |③-④-|
①④②⑧ |⑤-⑥-|
□⑦⑤⑥ |⑦-⑧-|

40
□□□□ |----|
□□□□ |----|
□□□□
□□□□

41
①□①□ |①---|
□□□② |②---|
□④③□ |③-④-⑤-|
□⑥⑤□ |⑥---|

□⑦□⑦ |⑦---|
□□□□
□□□□
□□□□

42
④⑧④⑧ |①-②-③-|
□□□□ |④---|
②⑥⑤① |⑤-⑥-⑦-|
□□⑦③ |⑧---|

□□□□ |⑨-⑩-⑪-|
□□□□
⑩□□⑨
□□□⑪

43
②⑥②⑥ |①---|
①□①□ |②---|
□④③□ |③-④-⑤-|
□□⑤□ |⑥---|

□□□□ |⑦---|
□□□□
□□□□
⑦□□⑦

44
①□①□ |①---|
②□②□ |②---|
⑥⑤④③ |③④⑤⑥|
□□□⑦ |⑦---|

□⑧□⑧ |⑧---|
□□□□
□□□□
□□□□

45
⑤⑩⑤⑩ |①②③④|
①②③④ |⑤---|
⑨⑧⑦⑥ |⑥⑦⑧⑨|
□□□□ |⑩---|

□□□□ |⑪⑫⑬⑭|
□□□□
□□□□
⑪⑫⑬⑭

46
②⑦②⑦ |①---|
①□①□ |②---|
⑥⑤④③ |③④⑤⑥|
□□□□ |⑦---|

□□□□ |⑧⑨⑩⑪|
⑧⑨⑩⑪
□□□□
□□□□

47
□□□□ |①---|
□□□□ |----|
□□□□ |----|
①□①□

48
⑦□□③ |--①②|
⑧②□④ |③④⑤⑥|
⑨□①⑤ |⑦⑧⑨⑩|
⑩□□⑥

49
□②③⑧ |①-②-|
□④⑦⑦ |③-④-|
□□⑤□ |⑤-⑥-|
□⑥①□ |⑦-⑧-|

□□□□ |⑨-⑩-|
⑩□□□
⑨⑨□□
□□□□

50
□①②□ |①-②-|
□③□□ |③-④-|
⑦⑧□④ |⑤-⑥-|
⑦⑤⑥□ |⑦-⑧-|

□□□⑨ |⑨-⑩-|
□□⑩⑨
□□□□
□□□□

51
□④③⑦ |①-②-|
②□□□ |③-④-|
□⑥①⑦ |⑤-⑥-|
□□⑧⑤ |⑦-⑧-|

⑨□□□ |⑨-⑩-|
□□□□
⑨□□□
⑩□□□

52
⑫⑪⑩⑨ |①②③④|
④③②① |⑤⑥⑦⑧|
⑭⑥⑤⑬ |⑨⑩⑪⑫|
⑯⑧⑮⑦ |⑬⑭⑮⑯|

□□□□ |⑰---|
□□□⑰
□□□□
□□□□

53
⑦□⑦④ |①②③④|
①⑤□□ |⑤⑥⑦-|
□⑨②⑧ |----|
⑪③⑩⑥ |⑧⑨⑩⑪|

□□□□ |⑫⑬⑭⑮|
□⑮⑫□
⑬□⑭□
□□□□

54
□①□① |①---|
②⑩⑦□ |--②③|
□⑥⑪③ |④⑤⑥⑦|
⑧④⑤⑨ |⑧⑨⑩⑪|

⑫□⑫□ |⑫---|
□□□□
□□□□
□□□□

55
⑩⑬□⑬ |--①②|
②□⑤⑨ |③④⑤⑥|
⑫⑥⑪① |⑦⑧⑨⑩|
⑧④③⑦ |⑪⑫⑬-|

□□□□ |----|
□□□□
□□□□
□□□□

56
⑮⑪⑮⑩ |①②③④|
①⑬②⑥ |⑤⑥⑦⑧|
⑨⑤⑧⑫ |⑨⑩⑪⑫|
⑦③④⑭ |⑬⑭⑮-|

□□□□ |----|
□□□□
□□□□
□□□□

57
⑫⑥⑪⑤ |①②③④|
⑭⑩⑮③ |⑤⑥⑦⑧|
④⑯⑬⑦ |⑨⑩⑪⑫|
②⑧①⑨ |⑬⑭⑮⑯|

58
⑫⑥⑪⑤ |①②③④|
⑭⑩⑮③ |⑤⑥⑦⑧|
④⑯⑬⑦ |⑨⑩⑪⑫|
②⑧①⑨ |⑬⑭⑮⑯|

59
⑫⑥⑪⑤ |①②③④|
⑭⑩⑮③ |⑤⑥⑦⑧|
④⑯⑬⑦ |⑨⑩⑪⑫|
②⑧①⑨ |⑬⑭⑮⑯|

60
⑫⑥⑪⑤ |①②③④|
⑭⑩⑮③ |⑤⑥⑦⑧|
④⑯⑬⑦ |⑨⑩⑪⑫|
②⑧①⑨ |⑬⑭⑮⑯|

61
□⑥□⑤ |①②③④|
□□□③ |⑤⑥⑦⑧|
④□□⑦
②⑧①□

62
⑥□②⑩ |①---|
⑦□③⑪ |②③④⑤|
⑧□④⑫ |⑥⑦⑧⑨|
⑨□⑤① |⑩⑪⑫⑬|

□□□□
□□□□
□□□□
□□□⑬

63
⑨①⑤⑬ |①②③④|
⑩②⑥□ |⑤⑥⑦⑧|
⑪③⑦□ |⑨⑩⑪⑫|
⑫④⑧□ |⑬---|

64
□⑤④□ |①-②-|
□①□⑥ |③-④-|
⑦□□② |⑤-⑥-|
□③□⑧ |⑦-⑧-|

65
□□□□ |①-②-|
⑤□④□ |③-④-|
□③②⑥ |⑤-⑥-|
①⑦⑧□ |⑦-⑧-|

66
①②③④ |①②③④|
⑧⑦⑥⑤ |⑤⑥⑦⑧|
⑨⑩⑪⑫ |⑨⑩⑪⑫|
⑯⑮⑭⑬ |⑬⑭⑮⑯|

67
①③③② |①-②-|
⑥⑦□□ |③---|
④⑤□□ |④-⑤-|
□□□□ |⑥-⑦-|

68
①④⑦⑦ |①-②-|
□⑦⑤⑤ |③-④-|
□⑤④④ |--⑤-|
③⑥②② |⑥-⑦-|

69
②□⑥⑥ |--①-|
⑤⑥④④ |②-③-|
①④③③ |--④-|
□□①① |⑤-⑥-|

70
③③⑧⑧ |①-②-|
⑦⑧⑥⑥ |③-④-|
⑤⑥④④ |⑤-⑥-|
①①②② |⑦-⑧-|

71
□⑥⑥⑥ |--①-|
⑤□④④ |--②-|
□④②② |③-④-|
③□①① |⑤-⑥-|

72
①□⑥⑥ |①-②-|
⑥□④④ |--③-|
□⑤③③ |--④-|
④③②② |⑤-⑥-|

73
⑦⑦⑦⑦ |①-②-|
□①⑥⑥ |③-④-|
③□④④ |⑤-⑥-|
□⑤②② |--⑦-|

74
□⑧⑧□ |--①②|
⑦③□□ |③-④-|
④⑤⑤□ |⑤-⑥-|
①⑥□② |⑦-⑧-|

75
⑦□□⑦ |--①②|
□③②① |③-④-|
⑤□□□ |⑤-⑥-|
□⑥④□ |⑦---|

76
⑬□⑥□ |①-②③|
⑤④③② |④⑤⑥-|
⑨①①⑩ |⑦⑧⑨⑩|
⑦⑪⑫⑧ |⑪⑫⑬-|

77
□②③③ |--①-|
⑥④⑤① |②-③-|
□②①⑦ |④-⑤-|
④⑥⑦⑤ |⑥-⑦-|

78
①⑤⑥⑧ |①-②③|
□⑦⑨④ |④⑤⑥⑦|
①③②□ |⑧-⑨-|
⑩□□⑩ |--⑩-|

79
⑦□□⑥ |①-②-|
②□□③ |③-④-|
⑤□④□ |⑤-⑥-|
□①⑧□ |⑦-⑧-|

80
⑮①②⑯ |①②③④|
⑦③④⑧ |⑤⑥⑦⑧|
⑨⑤⑥⑩ |⑨⑩⑪⑫|
⑪⑬⑭⑫ |⑬⑭⑮⑯|

81
□①②□ |①②③④|
⑦③④⑧ |⑤⑥⑦⑧|
⑨⑤⑥⑩ |⑨⑩⑪⑫|
⑪⑬□⑫ |⑬---|

82
□③②① |①-②-③-|
⑥⑤④□ |④-⑤-⑥-|
⑦⑧⑨□ |⑦-⑧-⑨-|
□⑩⑪⑫ |⑩-⑪-⑫-|

83
③②①④ |①-②-③-|
⑨□□⑤ |④-⑤-⑥-|
⑧□□⑥ |⑦-⑧-⑨-|
⑦⑩⑪⑫ |⑩-⑪-⑫-|

84
③②①⑧ |①-②-③-|
□⑨⑩⑧ |④-⑤-⑥-|
⑦④⑤⑥ |⑦-⑧-|
⑦□□□ |--⑨⑩|

85
⑦③④□ |①②③④|
⑧□□□ |⑤-⑥-|
⑨⑤□⑥ |⑦-⑧-|
⑩①②□ |⑨-⑩-|

86
②□□② |①---|
□①①□ |----|
□③□□ |②---|
□③□□ |--③-|

87
□③③□ |--①-|
②③③① |②---|
□□□□ |③---|
□□□□ |----|

88
①⑤④④ |①-②-|
③⑤□② |--③-|
①□⑥③ |--④-|
□□⑥② |⑤-⑥-|

89
④□□□ |①---|
③□□□ |②---|
②□□□ |③---|
①①□□ |④---|

90
□□⑤□ |①-②-|
□⑥□⑤ |③-④-|
□③①④ |⑤-⑥-|
③②□①

91
①⑤□② |①-②-|
④□③□ |③-④-|
①⑤□⑥ |⑤-⑥-|
□□③□

92
④□⑤⑤ |①-②-|
□②⑤① |③-④-|
③□①□ |⑤-⑥-|
③③⑥①

93
⑥①□□ |①-②-|
①④□③ |③-④-|
⑤①③② |⑤-⑥-|
⑤⑤□③

94
□③⑤① |①-②-|
③□①□ |③-④-|
□④□⑤ |⑤-⑥-|
□□②⑥

95
□⑤□③ |①-②-|
⑤①□□ |③-④-|
①⑥③□ |⑤-⑥-|
②□④□

96
②□①□ |①②③④|
⑫⑥⑤□ |⑤⑥⑦⑧|
④□⑨③ |⑨⑩⑪⑫|
⑩⑧⑪⑦

97
⑥②⑤① |①②③④|
□□⑨③ |⑤⑥⑦⑧|
⑧④□⑦ |⑨---|
□□□□

98
□□□② |①---|
□□□□ |----|
□□□□ |②---|
①□□□ |----|

99
⑤□②□ |①-②-|
④③□② |--③-|
①□④□ |--④-|
③①□⑤ |--⑤-|

100
□③③② |--①-|
□③①③ |②-③-|
③③□② |----|
③③①□ |----|
最終更新:2024年01月23日 17:40