アットウィキロゴ
めうめうぺったんたん!! (ZAQUVA Remix) / Remixed by BEMANI Sound Team "ZAQUVA"
BPM:200
Notes:1010

1
②□□④ |①---|
⑤□④□ |②-③-|
⑤□③⑥ |④-⑤-|
□①①⑥ |⑥---|

2
②□□④ |①---|
⑤□④□ |②-③-|
⑤□③⑥ |④-⑤-|
□①①⑥ |⑥-⑦-|

□□□□
□□□□
□□□□
□⑦⑦□

3
②①①④ |①---|
⑤□④□ |②-③-|
⑤□③⑥ |④-⑤-|
□□□⑥ |⑥---|

4
⑧①⑦□ |①-②③|
□⑧⑥⑨ |④⑤⑥⑦|
⑩②⑤⑨ |⑧-⑨-|
⑩③④⑪ |⑩-⑪-|

5
④①□① |①---|
□④②⑤ |②-③-|
⑥□□⑤ |④-⑤-|
⑥③□□ |⑥---|

6
④①□① |①---|
□④②⑤ |②-③-|
⑥□⑦⑤ |④-⑤-|
⑥③□□ |⑥-⑦-|

7
④①□① |①---|
□④□⑤ |②-③-|
⑥③□⑤ |④-⑤-|
⑥□□② |⑥---|

8
□⑧①⑨ |①②③④|
⑩⑦②□ |⑤⑥⑦⑧|
⑩⑥③⑪ |⑨-⑩-|
⑫⑤④⑪ |⑪-⑫-|

9
①□①④ |①---|
⑤②④□ |②-③-|
⑤□□⑥ |④-⑤-|
□□③⑥ |⑥---|

10
①⑧①⑤ |①-②-|
⑥⑨⑤③ |③-④-|
⑥⑩□⑦ |⑤-⑥-|
②□④⑦ |⑦--⑧⑨⑩|

11
②□②④ |①---|
⑤□④□ |②-③-|
⑤□□⑥ |④-⑤-|
③①□⑥ |⑥---|

12
⑧①⑦□ |①-②③|
□⑧⑥⑨ |④⑤⑥⑦|
⑩②⑤⑨ |⑧-⑨-|
⑩③④□ |⑩---|

13
⑤□⑧③ |①-②-|
□⑤□⑥ |③-④-|
⑦②□⑥ |⑤-⑥-|
⑦□④① |⑦-⑧-|

14
⑤②□③ |①-②-|
□⑤□⑥ |③-④-|
⑦□□⑥ |⑤-⑥-|
⑦④□① |⑦---|

15
④⑫⑪③ |①-②-|
②⑩⑨□ |③-④-|
□⑧⑦□ |⑤⑥⑦⑧|
□⑥⑤① |⑨⑩⑪⑫|

16
□□□⑩ |①-②③|
④□□⑩ |④-⑤-|
③⑦⑥① |⑥⑦⑧⑨|
②⑨⑧⑤ |⑩---|

17
①②③④ |①---|
□①③□ |②---|
□□□□ |③---|
□□□□ |④---|

18
□□□□ |①---|
□□□① |②---|
□③①② |③---|
□□④③ |④---|

19
□□□□ |①-②-|
④⑤⑥⑦ |③-④-|
③□□⑧ |⑤⑥⑦⑧|
②①⑩⑨ |⑨⑩⑪⑫|

□□□□
□□□□
□⑫□□
□⑪□□

20
□④③□ |①-②-|
⑥⑤□⑥ |③-④-|
⑥□①⑥ |--⑤-|
②□□□ |⑥---|

21
①③②④ |①---|
□□□□ |②---|
□□□□ |③---|
③①④② |④---|

22
①③②④ |①---|
□□□⑥ |②---|
⑤□□□ |③---|
③①④② |④-⑤⑥|

23
①□④④ |①---|
①③②□ |②---|
□①④② |③---|
③③□② |④---|

24
⑥①□⑥ |①---|
①□②□ |②---|
□①⑤② |③④⑤-|
③④②□ |⑥---|

25
□①②□ |①-②-|
①③④⑥ |③-④-|
③⑤□② |⑤---|
⑤□⑥④ |⑥-⑦-|

□□□□
⑦□□□
□□□□
□⑦□□

26
□③④⑤ |①---|
□□□□ |②-③④|
②⑥①① |⑤---|
□□⑥② |⑥---|

27
①③⑤□ |①-②-|
□①③⑤ |③-④-|
⑥⑥②④ |⑤---|
②④⑦⑦ |⑥-⑦-|

28
②④⑥① |①---|
①②④⑥ |②-③-|
□□③⑤ |④-⑤-|
③⑤□□ |⑥---|

29
⑤④⑥⑤ |①-②-|
□③④□ |③-④-|
①②③⑥ |⑤---|
□⑦②① |⑥---⑦-|

30
□⑩⑨□ |①---②-|
①④⑧③ |③---④-|
⑤⑥⑦□ |⑤-⑥-⑦-|
①□②③ |⑧-⑨-⑩-|

31
①□□② |①---|
□□□□ |②---|
□⑤□□ |③---|
④□□③ |④-⑤-|

32
④②①③ |①---|
④□□③ |②---|
②□□① |③---|
④□□③ |④---|

33
□□⑦⑥ |①-②③|
□④⑨⑧ |④-⑤-|
⑪□③⑩ |⑥⑦⑧⑨|
□②①⑤ |⑩-⑪-|

34
□□⑪□ |①②③-|
①④⑦⑥ |④-⑤-|
□②⑨⑧ |⑥⑦⑧⑨|
③□⑤⑩ |⑩-⑪-|

35
①②□⑥ |①②③④|
③④⑦□ |⑤-⑥⑦|
⑤⑨⑩⑧ |⑧-⑨-|
□□□□ |⑩-⑪-|

⑪□□□
□□□□
□□□□
□□□□

36
⑦③①⑦ |①-②-|
③⑤⑤① |③-④-|
⑥□□⑥ |⑤-⑥-|
④②④② |⑦---|

37
⑦②②□ |①---|
⑤□⑥① |②---③-|
⑦□□□ |④---⑤-|
③□④① |⑥---⑦-|

38
□□□① |----①-|
□②□③ |②---③-|
□④□⑤ |④---⑤-|
□⑥□⑦ |⑥---⑦-|

39
⑤□③⑤ |----|
②□□□ |①---②-|
□④□□ |③---|
□□①□ |④---⑤-|

40
□□□□ |----|
□□□□ |----|
□□□□ |----|
□□□□ |----|

41
⑥⑦⑫⑪ |①-②③|
④⑤⑩□ |④⑤⑥⑦|
②③□⑨ |⑧-⑨⑩|
⑧①①□ |⑪-⑫-|

42
③□□⑩ |①-②-|
②③⑨④ |③-④⑤|
①②⑤⑧ |⑥⑦⑧⑨|
□①⑦⑥ |⑩-⑪-|

□□□□
□□□□
⑪□□□
□□□□

43
⑧□□□ |①②③-|
①⑨□④ |④⑤⑥-|
⑩②⑤⑪ |⑦-⑧⑨|
③⑦□⑥ |⑩-⑪-|

44
⑤①③⑤ |①-②-|
①⑦⑦③ |③-④-|
□⑥⑥□ |⑤-⑥-|
②④②④ |⑦---|

45
□②②⑦ |①---|
①⑥□⑤ |②---③-|
□□□⑦ |④---⑤-|
①④□③ |⑥---⑦-|

46
①□□□ |----①-|
③□②□ |②---③-|
⑤□④□ |④---⑤-|
⑦□⑥□ |⑥---⑦-|

47
□⑥□□ |----|
⑥④□⑤ |①---②-|
□②□③ |③---④-|
□□□① |⑤---⑥-|

48
□□□□ |----|
□□□□ |----|
□□□□ |----|
□□□□ |----|

49
①□□⑤ |①-②-|
□②⑥□ |③-④-|
□③⑦□ |⑤-⑥-|
④□□⑧ |⑦-⑧-|

50
①②③④ |①-②-|
□□□□ |③-④-|
⑧⑦⑥⑤ |⑤-⑥-|
□□□□ |⑦-⑧-|

51
□□□□ |①-②-|
⑥⑦③② |③-④-|
□□□□ |⑤-⑥-|
⑤⑧④① |⑦-⑧-|

52
④②①③ |①---|
□□□□ |②---|
②□□① |③---|
④□□③ |④---|

53
⑧□□④ |①-②-|
□⑦③□ |③-④-|
⑥□□② |⑤-⑥-|
□⑤①□ |⑦-⑧-|

54
□⑦②□ |①---|
⑥□□③ |②-③-|
⑤①①④ |④-⑤-|
□□□□ |⑥-⑦-|

55
⑥⑦③② |①-②-|
□□□□ |③-④-|
□□□□ |⑤-⑥-|
⑤⑧④① |⑦-⑧-|

56
□□□① |①-②-|
②⑥⑤□ |③-④-|
□⑧⑦③ |⑤⑥⑦⑧|
④□⑨□ |⑨---|

57
□□④□ |①-②-|
③⑦⑥□ |③-④-|
①□□⑧ |⑤-⑥-|
⑤①⑧② |⑦-⑧-|

58
□⑦□④ |①-②-|
③□⑥□ |③-④-|
□⑤②□ |⑤-⑥-|
□①□□ |⑦---|

59
②□①③ |①---|
③②□① |--②-|
①□②③ |----|
③①□② |③---|

60
②□③⑦ |--①-|
⑥②⑤③ |②-③-|
□①④⑦ |④-⑤---|
⑥④①□ |⑥---⑦-|

61
②④③⑦ |①-②-|
⑥②□③ |③--④|
④①□⑦ |--⑤---|
⑥⑤①⑤ |⑥---⑦-|

62
②④③⑦ |①-②-|
⑥②□③ |③--④|
④①□⑦ |--⑤---|
⑥⑤①⑤ |⑥---⑦-|

63
②④③⑧ |①-②-|
⑥②⑤③ |③--④|
④①□□ |-⑤--|
⑦□①⑤ |⑥-⑦⑧|

64
②⑤③□ |--①-|
⑤②□③ |②-③-|
⑦①④⑥ |④-⑤-|
⑦④①⑥ |⑥-⑦-|

65
④③②① |①---|
□②□③ |②---|
□①□④ |③---|
□□□□ |④---|

66
□⑦⑧⑬ |①②③④|
⑨⑤⑥⑩ |⑤⑥⑦⑧|
⑪③④⑫ |⑨⑩⑪⑫|
□①②⑬ |⑬---|

67
②④⑥⑧ |①-②-|
□⑤□□ |③-④-|
⑦□③□ |⑤-⑥-|
①③⑤⑦ |⑦-⑧-|

68
□□□□ |①-②-|
④⑦□① |③-④-|
□③②⑥ |⑤-⑥-|
①③⑤⑦ |⑦-⑧-|

□□□□
□□□⑧
□□□□
□□□□

69
②④⑥① |①-②-|
□□□□ |③-④-|
⑦③□□ |⑤-⑥-|
①③⑤⑦ |⑦-⑧-|

□□□⑧
□□□□
□□□□
□□□□

70
②④⑥□ |①-②-|
□□□③ |③-④-|
□□①□ |⑤-⑥-|
①③⑤⑦ |⑦---|

71
②⑤⑤⑧ |①-②-|
①④⑦② |③-④-|
⑧⑥①③ |⑤-⑥-|
③⑦④⑥ |⑦-⑧-|

72
⑧⑨⑩⑪ |①-②③|
①④□① |④-⑤-|
□⑥③□ |⑥-⑦-|
②□⑤⑦ |⑧⑨⑩⑪|

73
⑦□□□ |①-②-|
①②③⑤ |③-④-|
⑦④□⑥ |⑤-⑥-|
①②③⑤ |⑦-⑧-|

□□□□
⑧□□□
□□□□
□□□□

74
□①②① |①-②-|
⑦⑤⑥⑤ |③-④-|
⑦□⑨⑧ |⑤-⑥-|
③④③□ |⑦-⑧⑨|

75
②□②□ |①-②-|
⑦④⑤□ |③-④-|
⑥①⑧□ |⑤-⑥-|
⑦③⑤③ |⑦-⑧-|

76
③②③□ |①-②-|
⑧□④□ |③-④-|
□①⑨① |⑤⑥⑦-|
⑧⑤⑥⑦ |⑧-⑨⑩|

□□□□
□□□□
□⑩□□
□□□□

77
③④③□ |①-②-|
⑦②⑤② |③-④-|
①□□□ |⑤-⑥-|
⑦□⑤⑥ |⑦-⑧⑨|

□□□□
□□□□
⑧⑨□□
□□□□

78
③④③④ |①-②-|
⑧□□⑦ |③-④-|
□□①⑥ |⑤⑥⑦-|
⑧②⑨⑤ |⑧-⑨-|

79
①□①□ |--①-|
⑥⑤□⑤ |②---|
②④②④ |③-④-|
⑥③□③ |⑤-⑥-|

80
①⑥①⑥ |--①-|
□□⑦□ |②---|
②⑧②□ |③④⑤-|
□③④⑤ |⑥-⑦⑧|

81
⑦□⑥⑦ |①---|
①④□② |②③④⑤|
⑤□③⑥ |⑥---|
①□□□ |⑦---|

82
□⑥□□ |①---|
②□④□ |②③④⑤|
⑥③□⑤ |⑥---|
⑦①⑦① |⑦---|

83
②□①□ |①-②-|
④②⑤① |--③-|
□④□⑤ |④-⑤-|
⑥□□③ |--⑥-|

84
②⑥①⑥ |①-②-|
□②⑤① |③-④-|
④⑥③⑥ |--⑤-|
□④□③ |⑥---|

85
□□□□ |①---|
②□□④ |②---|
□④②□ |③---|
①□□③ |④---|

86
⑤□⑤□ |①---|
②⑤□⑤ |②---|
□□②□ |③-④-|
①④④③ |⑤---|

87
□□□□ |①---|
②□□④ |②---|
□④②□ |③---|
①□□③ |④---|

88
④①②③ |①---|
□□□□ |②---|
①□□② |③---|
④□□③ |④---|

89
□□□□ |①---|
②□□④ |②---|
□④②□ |③---|
□①③□ |④---|

90
□⑤⑤□ |①---|
②□□□ |②---|
⑤□②⑤ |③-④-|
④①③□ |⑤---|

91
②□□④ |①---|
□□□□ |②---|
□②④□ |③---|
③□□① |④---|

92
□①②□ |①-②-|
①③④□ |③-④-|
③⑤□② |⑤---|
⑤□⑥④ |⑥---|

93
□①④⑥ |①-②③|
①④⑥③ |④-⑤-|
②□□⑤ |⑥---|
⑦⑤□□ |⑦---|

94
⑥⑤□⑥ |①②③-|
□④⑤□ |④-⑤-|
①③④□ |⑥---|
□⑦□② |⑦---|

95
⑤⑥⑥⑤ |①-②-|
②②③③ |③-④-|
⑥④④⑥ |⑤---|
□□①① |⑥---|

96
□□□□ |---①----②---|
②④⑥⑧ |-③----④----⑤|
⑨□□□ |----⑥----⑦--|
①③⑤⑦ |--⑧----⑨----|

97
①③⑤⑦ |①-②-|
□□□□ |③-④-|
□②④⑥ |⑤-⑥-|
⑧□□□ |⑦-⑧-|

98
□□□□ |①-②-|
①③⑤⑦ |③-④-|
□□□□ |⑤----⑥--|
□②④⑥ |--⑦-----|

99
□□□□ |----|
□□□□ |----|
□①①□ |①---|
□□□□ |----|
最終更新:2024年01月23日 17:43