アットウィキロゴ
BPM:150
1
⑩□□⑪ |①②-③|
⑨⑧⑦⑥ |④-⑤⑥|
②□□④ |⑦⑧⑨-|
⑤①③□ |⑩-⑪-|
2
□⑫⑬□ |①②-③|
⑨⑧⑦⑥ |④-⑤⑥|
②⑩⑪④ |⑦⑧⑨-|
⑤①③□ |⑩⑪⑫⑬|
3
⑩□□⑪ |①②-③|
⑨⑧⑦⑥ |④-⑤⑥|
②□□④ |⑦⑧⑨-|
⑤①③□ |⑩-⑪-|
4
□□□⑪ |①②-③|
⑩⑨⑧⑦ |④⑤⑥⑦|
②⑥⑤④ |⑧⑨⑩⑪|
□①③□ |-⑫-⑬|

□⑫□□
□□□□
⑫□□⑬
□□⑬□
5
⑩□□⑪ |①②-③|
⑨⑧⑦⑥ |④-⑤⑥|
□②④□ |⑦⑧⑨-|
①⑤□③ |⑩-⑪-|
6
⑩⑪⑫⑬ |①②-③|
⑨⑧⑦⑥ |④-⑤⑥|
⑤②④□ |⑦⑧⑨-|
①□□③ |⑩⑪⑫⑬|
7
⑩□□⑪ |①②-③|
⑨⑧⑦⑥ |④-⑤⑥|
②□□④ |⑦⑧⑨-|
⑤①③□ |⑩-⑪-|
8
⑩□□⑪ |①②-③|
⑨⑧⑦⑥ |④-⑤⑥|
②⑩⑪④ |⑦⑧⑨-|
⑤①③□ |⑩-⑪-|
9
⑪⑦⑥⑫ |①②③④|
⑤⑨⑩⑥ |-⑤-⑥|
①⑦⑧④ |-⑦-⑧|
⑤②③□ |⑨⑩⑪⑫|
10
⑨⑦⑥⑨ |①②③④|
⑤□□⑥ |-⑤-⑥|
①⑦⑧④ |-⑦-⑧|
⑤②③□ |⑨---|
11
⑪⑦⑥⑫ |①②③④|
⑤⑨⑩⑥ |-⑤-⑥|
①⑦⑧④ |-⑦-⑧|
⑤②③□ |⑨⑩⑪⑫|
12
⑭⑬⑫⑪ |①②③④|
⑩□⑧⑨ |-⑤⑥⑦|
①⑥⑦④ |⑧⑨-⑩|
⑤②③□ |⑪⑫⑬⑭|
13
⑫□⑦⑪ |①②③④|
⑥⑧⑤⑦ |-⑤-⑥|
④⑩⑨① |-⑦-⑧|
⑥③②⑤ |⑨⑩⑪⑫|
14
⑨□⑦⑨ |①②③④|
⑥⑧⑤⑦ |-⑤-⑥|
④□□① |-⑦-⑧|
⑥③②⑤ |⑨---|
15
⑪⑦⑥⑫ |①②③④|
⑤⑨⑩⑥ |-⑤-⑥|
①⑦⑧④ |-⑦-⑧|
⑤②③□ |⑨⑩⑪⑫|
16
⑭⑬⑫⑪ |①②③④|
⑩□⑧⑨ |-⑤⑥⑦|
①⑥⑦④ |⑧⑨-⑩|
⑤②③□ |⑪⑫⑬⑭|
17
□□□□ |①-②-|
□□□③ |③-④-|
②②□□ |⑤-⑥-|
□④□① |⑦-⑧-|

□□□□
⑥□□□
⑧⑧⑤⑤
□□⑦□
18
④⑥⑥① |①-②-|
□□③③ |③-④-|
□□□⑤ |⑤-⑥-|
②□□□ |----|
19
□□□□ |①-②-|
②□③□ |③-④-|
□②□□ |⑤-⑥-|
□④□① |⑦-⑧-|

□⑧□□
⑧⑥□⑤
□□⑤□
□□□⑦
20
④□③① |①-②-|
□⑤⑤③ |③-④-|
②⑥⑥□ |⑤--⑥|
□⑦⑦□ |--⑦-|
21
③□②② |①-②-|
□□□④ |③-④-|
□□④□ |⑤-⑥-|
①□□□ |⑦-⑧-|

□□□□
⑤□⑥□
□□□⑥
⑦□⑧⑧
22
□①④② |①-②-|
□⑥⑥④ |③-④-|
⑥③②⑥ |⑤-⑥-|
⑤□□⑦ |--⑦-|
23
③□④② |①-②-|
□□□④ |③-④-|
□□②□ |⑤-⑥-|
□①□□ |⑦-⑧-|

□□□□
⑤□□□
⑦□⑧⑥
□□⑥⑧
24
□①②② |①-②-|
③⑤⑤④ |③-④-|
□⑥⑥④ |⑤--⑥|
□⑦⑦□ |--⑦-|
25
□②□⑤ |--①-|
□□④□ |-②--|
①□□③ |③--④|
□□□□ |--⑤-|
26
□□④□ |①--②|
③□□⑤ |--③-|
□②⑥□ |④--⑤|
①□□□ |--⑥-|
27
□④③② |①---|
□□⑦⑥ |②③④-|
□□□□ |--⑤-|
⑤①①⑤ |--⑥⑦|
28
□□□□ |①---|
□①□□ |②③④-|
□④③② |----|
□□□□ |⑤⑥⑦⑧|

□□□⑧
□⑥⑦□
⑤□□□
□□□□
29
①①□□ |①---|
□□□② |②③④-|
□⑥③□ |----|
□④⑤□ |--⑤⑥|
30
⑥□①① |①--②|
②□⑤□ |--③-|
④⑥③⑤ |④--⑤|
④②□③ |--⑥-|
31
□①①□ |①---|
②□□③ |②-③-|
②□□③ |----|
□□□□ |----|
32
□①□□ |--①②|
□□□□ |③④⑤⑥|
□⑤②④ |⑦⑧⑨⑩|
□③⑥□ |⑪⑫⑬⑭|

⑪⑫⑬⑭
⑦⑧⑨⑩
□□□□
□□□□
33
□□□□ |①---|
□⑥□⑤ |--②③|
①③④□ |④⑤⑥⑦|
②□□⑦ |⑧⑨⑩⑪|

□□□□
□□□□
⑧□□⑪
□⑨⑩□
34
⑤②⑥④ |①②③④|
①⑦③⑨ |⑤-⑥⑦|
□□⑧⑨ |⑧---|
□□□□ |--⑨-|
35
①③⑧⑥ |①②③④|
□□□□ |⑤⑥⑦⑧|
⑦□□□ |⑨⑩⑪⑫|
⑤□④② |⑬⑭⑮⑯|

□□□□
⑪⑬□⑯
□⑨⑩⑫
□⑮□⑭ 
36
①③⑧⑥ |①②③④|
□□②□ |⑤⑥⑦⑧|
⑤⑦□□ |⑨⑩⑪⑫|
□□④□ |⑬⑭⑮⑯|

□□□□
⑨⑮□⑭
□□⑫⑩
⑪⑬⑯□
37
□□⑧⑨ |①---|
⑥⑦⑪□ |--②③|
①⑩④⑤ |④⑤⑥⑦|
②③□□ |⑧⑨⑩⑪|
38
□②□□ |--①-|
②□□① |-②--|
□□②□ |③--④|
□①□① |--⑤-|

④□⑤③
□③④⑤
④⑤□③
□□□□
39
□□□□ |①---|
□□□□ |----|
□□□□ |----|
①①①① |----|
40
□□□□ |----|
□□□□ |----|
□□□□ |----|
□□□□ |----|
41
□□□□ |----|
□①①□ |①---|
□①①□ |----|
□□□□ |----|
42
⑨⑨⑪⑪ |①②③-|
⑩③③⑧ |④⑤-⑥|
⑤⑤⑦⑦ |⑦-⑧⑨|
①⑥④② |-⑩⑪-|
43
□□□□ |①--②|
□①①□ |--③-|
□③□□ |-④--|
②□□□ |⑤--⑥|

□□□□
④⑥□□
□□□□
□⑤□□
44
□□□□ |①--②|
□□□② |--③-|
□□①③ |-④--|
□□□□ |⑤--⑥|

□□④⑤
□□□□
□□⑥□
□□□□
45
□□□□ |①--②|
②④□□ |--③-|
③⑥□□ |-④--|
⑤①□□ |⑤--⑥|
46
□□□□ |①--②|
□□□② |--③-|
□□□③ |-④--|
□□①□ |⑤--⑥|

□□□□
□□④□
□□⑥□
□□⑤□
47
②□□□ |①--②|
□①□□ |--③-|
③□□□ |-④--|
□□□□ |⑤--⑥|

□④□□
□⑥□□
□⑤□□
□□□□
48
□□□② |①--②|
□□□□ |--③-|
□□①③ |-④--|
□□□□ |⑤--⑥|

□□⑥□
□□④□
□□⑤□
□□□□
49
⑦□□⑧ |①-②-|
⑤□□⑥ |③-④-|
③□□④ |⑤-⑥-|
①□□② |⑦-⑧-|
50
⑧⑦⑦⑧ |①-②-|
⑥⑤⑤⑥ |③-④-|
④③③④ |⑤-⑥-|
②①①② |⑦-⑧-|
51
□□□□ |①---|
□□□③ |--②-|
□①①④ |③--④|
②②□⑤ |--⑤-|
52
②□□□ |①--②|
③□□⑤ |--③-|
①□□④ |④--⑤|
□□□⑥ |--⑥-|
53
□□□□ |①---|
②③④□ |②③④-|
□①①□ |--⑤-|
⑤⑦⑥⑤ |--⑥⑦|
54
□□⑤□ |①②③④|
□④③□ |⑤---|
□②①□ |⑥⑦⑧⑨|
□□□□ |⑩⑪⑫⑬|

□□□□
□□□□
⑬⑫⑪⑩
⑨⑧⑦⑥
55
□⑤□① |①---|
③②②□ |--②-|
□④□□ |③--④|
□□□□ |--⑤-|
56
⑥□□□ |①--②|
④□□② |--③-|
⑤□□① |④--⑤|
□□③□ |--⑥-|
57
□②③④ |①---|
⑤①①□ |--②③|
□①①⑥ |④-⑤-|
⑦□□□ |⑥-⑦-|
58
□□□□ |①--②|
□①①⑧ |--③-|
⑦②②⑥ |④⑤⑥⑦|
⑤③③④ |⑧---|
59
①②□① |①-②-|
③④①□ |③-④-|
□□□□ |⑤-⑥-|
□□④□ |⑦-⑧-|

□□□□
□□⑦⑧
⑤⑥⑤⑥
⑦⑧□□
60
①②①⑤ |①-②③|
④⑤□□ |④-⑤-|
□□□□ |⑥-⑦⑧|
□□③□ |⑨⑩⑪⑫|

□□□□
□□□□
⑥⑦⑧□
⑨⑪⑫⑩
61
①③④⑫ |①-②-|
②⑤⑥⑧ |③④⑤⑥|
⑦⑪⑭⑩ |⑦⑧⑨⑩|
⑨⑬□□ |⑪⑫⑬⑭|
62
①⑤②⑫ |①②③④|
③⑦⑩⑥ |⑤⑥⑦⑧|
⑨⑬⑭⑧ |⑨⑩⑪⑫|
⑪⑮⑯④ |⑬⑭⑮⑯|
63
①⑤⑥⑦ |①-②-|
②□□□ |③-④-|
③□□□ |⑤-⑥-⑦-|
④⑧⑨⑩ |⑧-⑨-⑩-|
64
③□④□ |①-②-③-|
②□⑤□ |④-⑤-⑥-|
①□⑥□ |⑦⑧⑨⑩|
□□□□ |⑪⑫⑬⑭|

⑬□⑭□
□⑨□⑩
⑪□□⑫
□⑦⑧□
65
□□□□ |①---|
□□□□ |----|
□①□□ |----|
□□□□ |----|
66
⑨⑨⑪⑪ |①②③-|
⑩③③⑧ |④⑤-⑥|
⑤⑤⑦⑦ |⑦-⑧⑨|
①⑥④② |-⑩⑪-|
67
□□□□ |①---|
□①①□ |----|
□□□□ |----|
□□□□ |----|
68
□□□□ |----|
□□□□ |----|
□□□□ |----|
□□□□ |----|
69
□□□□ |①-②-|
⑤②③② |③-④⑤|
□④□□ |-⑥-⑦|
③①⑤① |⑧-⑨-|

⑧⑦⑧⑥
□□□⑨
□□□⑥
□⑨□□
70
⑥⑤□⑥ |①②-③|
③②④□ |-④⑤-|
□□①⑤ |⑥-⑦-|
③⑦⑦②
71
□□③□ |①-②-|
□②⑤② |③-④⑤|
①④③□ |-⑥-⑦|
⑤□□① |⑧-⑨-|

⑧⑥□⑥
⑦□□⑨
⑧□□□
□⑨□□
72
⑥⑤④⑤ |①②-③|
⑦②⑨□ |-④⑤-|
⑥⑧①⑩ |⑥-⑦⑧|
③□③② |⑨⑩|
73
□⑤④□ |①②③④|
□③□□ |⑤⑥⑦⑧|
⑦□⑧□ |⑨⑩⑪⑫|
□①②⑥ |⑬⑭⑮⑯|

⑪□□⑯
⑨⑮⑩⑭
□⑬□⑫
□□□□
74
□⑪□□ |①②③④|
⑤□⑫⑩ |⑤⑥⑦⑧|
③⑨④⑧ |⑨⑩⑪⑫|
①⑦②⑥
75
③□⑥④ |①②③④|
⑤⑦□□ |⑤⑥⑦⑧|
□□□⑧ |⑨⑩⑪⑫|
①□②□ |⑬⑭⑮⑯|

□□□□
□□⑫□
⑬⑨⑭□
⑮⑪⑯⑩
76
⑪①⑥⑫ |①②③④|
⑦③⑧② |⑤⑥⑦⑧|
⑨⑤⑩④ |⑨⑩⑪⑫|
□□□□
77
□⑤⑤□ |①-②③|
□□□③ |-④⑤-|
□□□③ |----|
②①①④ |----|
最終更新:2024年01月23日 17:43