アットウィキロゴ
BPM:140
1
①②③④ |①②③④--|
□□□□ |----|
⑤□□□ |⑤---|
□□□□ |----|
2
□□①□ |①---|
□□□① |----|
②③□③ |②---|
□□□□ |③---|
3
□①□① |①---|
□□□□ |----|
②□□③ |②---|
□□③□ |③---|
4
□①□□ |①---|
①□□□ |----|
□②②□ |②---|
□□□□ |③-④-⑤-|

③④⑤□
□□□□
□□□□
□□□□
5
□□□① |①-②-|
④□□∧ |--③-|
②③⑤⑥ |④-⑤-|
□□□□ |--⑥-|
6
□⑥⑤□ |--①-|
③□□□ |--②-|
①②④□ |③-④-|
□□□□ |--⑤⑥|

□□□5
□□□□
□□□□
□□□□
7
①□□□ |①---|
②□□□ |②---|
③□□□ |③---|
④□□□ |④---|
8
□⑧⑦⑥ |①-②-|
□□□⑤ |③-④-|
□□□④ |⑤-⑥-|
□①②③ |⑦-⑧-|
9
①□③□ |①---|
□②□④ |--②-|
□□□□ |--③-|
□□□□ |--④---|
10
□①□④ |--①-|
②□③□ |--②--③|
□□□□ |----|
□□□□ |--④-|
11
①□④□ |--①-|
⑤②③⑥ |--②--③|
□□□□ |--④-|
□□□□ |⑤-⑥---|
12
□②□□ |①---|
□□③□ |②----③|
①□□□ |----|
∧□□□ |④---|

□□□□
□□□□
4□□□
□□□□
13
①□③□ |①---|
□②□④ |--②-|
□□□□ |--③-|
□□□□ |--④---|
14
□①□⑥ |--①-|
②□③□ |--②--③|
④□<□ |--④-|
□□□□ |⑤-⑥-|

□□□□
□□□□
5□□□
□□□□
15
①□④□ |--①-|
⑤③②⑥ |--②--③|
□□□□ |---④-⑤|
□□□□ |--⑥---|
16
□□□② |①---|
□□□□ |--②-|
□□□□ |----|
①□□□ |----|
17
□□□⑦ |①--②③④|
□□□□ |⑤--⑥-⑦|
①⑥□□ |⑧⑨⑩⑪-⑫|
⑤④③② |---⑬-⑭|

□⑬□□
⑧⑨⑩⑪
⑫□⑭□
□□□□
18
□⑫⑬⑥ |---①②③|
⑦⑧⑨⑩ |④--⑤-⑥|
⑪⑤□⑭ |⑦⑧⑨⑩-⑪|
④③②① |--⑫⑬-⑭|
19
⑫⑪⑩⑭ |---①②③|
⑨⑧⑦⑥ |④--⑤-⑥|
⑬⑤□□ |⑦⑧⑨⑩⑪⑫|
①②③④ |---⑬-⑭|
20
⑨□⑩□ |①②③④--|
□⑪□□ |---⑤⑥⑦|
⑧⑦⑥⑤ |⑧-⑨-|
①②③④ |⑩-⑪-|
21
□□□⑦ |①--②③④|
□□□① |⑤--⑥-⑦|
□⑥□□ |⑧⑨⑩⑪-⑫|
⑤④③② |---⑬-⑭|

□⑬□□
⑧⑨⑩⑪
⑫□⑭□
□□□□
22
□⑫⑬⑥ |---①②③|
⑦⑧⑨⑩ |④--⑤-⑥|
⑪⑤□⑭ |⑦⑧⑨⑩-⑪|
④③②① |--⑫⑬-⑭|
23
⑫⑪⑩⑭ |---①②③|
⑨⑧⑦⑥ |④--⑤-⑥|
□⑤⑬□ |⑦⑧⑨⑩⑪⑫|
①②③④ |---⑬-⑭|
24
□□□□ |①②③④--|
⑥□□□ |--⑤-|
⑤□□□ |--⑥-|
①②③④ |⑦⑧⑨⑩⑪---|

⑪□□⑦
□□□⑧
□□□⑨
□□□⑩
25
□□⑧⑤ |①--②--|
⑦□②□ |③-④---|
③□□⑥ |⑤----⑥|
①□④□ |⑦--⑧--|
26
□□□④ |--①---|
⑤□□② |②----③|
②□①⑥ |---④--|
□□□③ |⑤-⑥---|
27
□□□④ |①----②|
□□①□ |③--④--|
③□⑤□ |--⑤---|
□□□② |⑥-⑦⑧-⑨|

□□□□
⑥□□⑦
□□□□
⑧□□⑨
28
□③□⑦ |①-②-|
□□②⑤ |③--④-⑤|
□①④⑧ |--⑥-|
□⑥□□ |⑦-⑧-|
29
⑬□⑮⑭ |①--②③④|
⑧⑨③② |⑤--⑥-⑦|
⑤⑩④⑪ |⑧⑨⑩⑪-⑫|
①⑥⑦⑫ |⑬--⑭-⑮|
30
⑬□⑮⑭ |①--②③④|
⑧⑨③② |⑤--⑥-⑦|
⑤⑩④⑪ |⑧⑨⑩⑪-⑫|
①⑥⑦⑫ |⑬--⑭-⑮|
31
④⑤⑦□ |①-②-|
③⑥⑧□ |③-④-|
②⑨⑩⑪ |⑤-⑥⑦-⑧|
①⑫⑬⑭ |⑨⑩⑪⑫⑬⑭|
32
□□□□ |①---|
①□□□ |②---|
②□□□ |③-④-|
③□□□ |--⑤-|

□④□⑤
④□□□
□④□□
□□□□
33
①③①□ |①---|
③①④④ |②--③-④|
①□①② |--⑤-|
□□②□ |---⑥-⑦|

⑦□□□
□□□□
⑥□□□
⑤⑤□□
34
□□②④ |--①-|
③□④② |②--③-④|
□③①□ |--⑤-|
□□□① |--⑥---|

□□□□
□□□□
□□□⑤
□□□⑥
35
□□④□ |①-②③-④|
③⑤⑥② |⑤--⑥-⑦|
①③②□ |---⑧-⑨|
⑦①□□ |--⑩⑪-⑫|

□□□⑨
□⑫□□
⑪□□⑧
□⑩□□
36
□①③□ |--①---|
②□□① |②--③-④|
□□②□ |--⑤⑥--|
□□□④ |⑦-⑧---|

□□□⑧
□□□⑦
□⑥□□
□⑤□□
37
□□③□ |①---|
①□①③ |②--③-④|
②④④□ |---⑤-⑥|
①②①□ |⑦-⑧⑨-⑩|

⑤⑤□□
□□⑥□
□□□⑦
⑩⑨⑧□
38
□③②④ |--①-|
③□④② |②--③-④|
□□①□ |---⑤-⑥|
□□□① |--⑦---|

⑥□□□
□□□□
⑤□□□
□□□⑦
39
□④□□ |①-②③-④|
②⑥⑤③ |⑤--⑥-⑦|
□②③① |---⑧-⑨|
□□①⑦ |⑩-⑪-|

□□□⑨
□□□□
⑩□□⑧
⑪□□□
40
①□⑥□ |①---|
②□⑤□ |②-③-|
④□③□ |④-⑤-|
□□□□ |--⑥-|
41
①□□< |①-②---|
□□□□ |③--④-⑤|
□□□□ |---⑥⑦⑧|
□□□□ |⑨--⑩-⑪|

2□□□
□□□□
□□□□
□□□□

⑪④□□
④⑨⑤⑤
⑩□⑧③
⑥⑥③⑦
42
□□④② |--①-|
③□②④ |②--③-④|
□③□① |--⑤-|
⑤□①⑥ |--⑥---|
43
□□④□ |①-②③-④|
③⑤⑥② |⑤--⑥-⑦|
①③②□ |---⑧-⑨|
⑦①□□ |⑩-⑪-|

□⑪□⑨
□□□□
⑩□□⑧
□□□□
44
②□□□ |①-②-|
□□□④ |③-④-|
□①①□ |⑤--⑥-⑦|
□③③□ |⑧-⑨⑩-⑪|

⑩⑤⑤□
⑪□⑨□
⑥⑧⑦□
□□□□
45
□□②□ |----|
□□□② |①--②-③|
①□□□ |--④-|
④①□③ |⑤⑥⑦⑧--|

□⑤□□
□⑥□□
□⑦□□
□⑧□□
46
□③④② |--①-|
③□②④ |②--③-④|
□□□① |--⑤-|
⑥□①⑤ |--⑥---|
47
□□④□ |①-②③-④|
③⑤⑥② |⑤--⑥-⑦|
①③②□ |---⑧-⑨|
⑦①□□ |--⑩-|

□□□⑨
⑩□□□
□□□⑧
□□□□
48
□□⑤□ |①---|
□□③□ |--②-|
①②□ |--③-|
□□□□ |④-⑤-|

□□□□
□□□□
□4□□
□□□□
49
□□⑧① |--①-|
⑦□□② |②-③-|
□□□③ |④-⑤-|
□⑥⑤④ |⑥-⑦⑧---|
50
□③□□ |①-②-|
□□②⑤ |③--④-⑤|
□①④□ |--⑥-|
□□□□ |⑦-⑧-|

□□□□
□□⑦□
□□□□
□⑥⑧□
51
①②③④ |①-②-|
□□□⑤ |③-④-|
□□□⑥ |⑤-⑥-|
□□⑧⑦ |⑦-⑧-|
52
□③□□ |①-②-|
□□②⑤ |③--④-⑤|
□①④□ |--⑥-|
□□□□ |⑦-⑧-|

□□□□
□□⑦□
□□□□
□⑥⑧□
53
⑦⑥⑨① |①-②-|
⑤④⑧□ |③-④-|
③②□∧ |⑤-⑥-|
①□□□ |⑦-⑧⑨--|
54
⑧⑨□□ |①-②-|
⑥⑦□□ |③--④-⑤|
③④⑤□ |⑥-⑦-|
①②□□ |⑧-⑨-|

□□□8
□□□□
□□□□
□□□□
55
□□□□ |①-②③--|
□□□□ |④--⑤-⑥|
④⑤□⑥ |⑦⑧⑨⑩-⑪|
①□②③ |⑫⑬⑭⑮-⑯|

□□□□
⑦⑧⑨⑩
⑯□⑪□
⑫⑬⑭⑮
56
①④□① |-----①|
□③□□ |--②-|
□②□□ |--③-|
□□□□ |--④-|
57
①⑤⑥② |①-②-|
③□④□ |③-④-|
⑤□②⑥ |⑤-⑥-|
⑦③□④ |⑦---|
58
①③⑤□ |①-②-|
③□②⑤ |③--④-⑤|
□①④□ |--⑥-|
□□□② |⑦-⑧-|

□□□□
□□⑦□
□□□□
⑦⑥⑧□
59
①②③④ |①-②-|
③□⑥⑤ |③-④-|
⑤□⑦⑧ |⑤-⑥-|
⑦□□□ |⑦-⑧-|
60
①③⑤□ |①-②-|
③②□⑤ |③--④-⑤|
□①④□ |--⑥-|
□□②□ |⑦-⑧-|

□□□□
□□⑦□
□□□□
⑦⑥⑧□
61
①②③④ |①②③④--|
□□□□ |⑤-⑥-|
□□□□ |⑦-⑧-|
□□□□ |⑨-⑩-|

□□□⑩
⑤⑨⑦⑧
⑦□□⑩
⑨⑤⑧⑥
62
①③⑤□ |①-②-|
③□②⑤ |③--④-⑤|
□①④□ |--⑥-|
□□□② |⑦-⑧-|

□□□□
□□⑦□
□□□□
⑦⑥⑧□
63
①②③④ |①-②-|
③□⑥⑤ |③-④-|
⑤□⑦⑧ |⑤-⑥-|
⑦□□□ |⑦-⑧-|
64
①③⑤□ |①-②-|
③②□⑤ |③--④-⑤|
□①④□ |--⑥-|
□□②□ |⑦-⑧-|

□□□□
□□⑦□
□□□□
□⑥⑧□
65
②□<① |--①-|
⑤□□④ |②-③④--|
□□□□ |⑤-⑥-|
⑥□<□ |----|

3□□□
□□□□
□□□□
□□□□
66
□③⑤① |①-②-|
③□□⑤ |③--④-⑤|
□②④① |--⑥-|
□□□□ |⑦-⑧-|

□□□□
□□⑦□
□□□□
⑦⑥⑧□

□□□□
□□□□
□□□□
1□□□
67
①②③④ |①-②-|
③□⑥⑤ |③-④-|
⑤□⑦⑧ |⑤-⑥-|
⑦□□□ |⑦-⑧-|
68
①③⑤□ |①-②-|
③②□⑤ |③--④-⑤|
□①④□ |--⑥-|
□□②□ |⑦-⑧-|

□□□□
□□⑦□
□□□□
⑦⑥⑧<
69
②④⑤⑦ |--①-|
□□③□ |②-③-|
④②□⑤ |④-⑤-|
⑥□□③ |⑥-⑦-|

□□□□
□□□□
□□□□
□□1□
70
①□□□ |①-②-|
③□④② |③-④-|
□①□□ |⑤-⑥-|
□③②④ |⑦---|

□⑤□⑥
□⑦□<
⑤□⑥□
□□□□
71
①③⑤□ |①-②-|
③□□⑤ |③--④-⑤|
□②④① |--⑥-|
□⑥□□ |⑦---|

□□□∨
□□□□
□□□⑦
□⑦□

□□□□
□1□□
□□□□
□□□□
72
①③□□ |①-②-|
□□②⑤ |③--④-⑤|
□□④□ |⑥-⑦-|
□□□□ |⑧-⑨-|

□□□□
□□⑧□
⑥□□□
⑧⑦⑨□

□□□□
□□□□
□□□1
□□1□
73
⑤④③② |①--②③④|
①□⑦□ |⑤--⑥-⑦|
□□□□ |⑧⑨⑩⑪-⑫|
⑥□□□ |---⑬-⑭|

□□□□
⑭□□⑬
⑧⑨⑩⑪
□⑫□□
74
④③②① |---①②③|
□⑥□□ |④--⑤-⑥|
⑤□□⑪ |⑦⑧⑨⑩--|
⑩⑨⑧⑦ |⑪---|
75
□③□① |①-②-|
□□②⑤ |③--④-⑤|
□□④□ |--⑥-|
□□□□ |⑦-⑧-|

□□□□
□□⑦□
□□□□
□⑥⑧□
76
①②③④ |①-②-|
□□□□ |③-④-|
□□□□ |⑤-⑥-|
□□□□ |⑦-⑧-|

⑥□□□
⑥□□⑤
□⑦□□
□□⑧⑧
最終更新:2024年01月23日 17:44