アットウィキロゴ
4x4 Parallel Universe / kamome sano
BPM:140
Notes:974

1
①②③④ |①②③④⑤-|
□⑩⑨⑧ |⑥-⑦-⑧-|
□⑪□⑦ |⑨-⑩-⑪-|
□⑫⑤⑥ |⑫-⑬-⑭-|

□□□□
□□□□
□□□□
□□⑬⑭

2
④⑤⑥□ |①-②-③-|
③□⑦□ |④-⑤-⑥-|
②⑨⑧① |⑦-⑧-⑨-|
□□□□ |⑩-⑪-⑫-|

⑫□□□
⑪□□□
⑩□□⑩
□□□□

3
□□□① |①---②-|
⑥⑦⑧□ |③-④-⑤-|
⑤□⑨□ |⑥-⑦-⑧-|
④③②□ |⑨-⑩-⑪-|

□□□□
□□□□
□□□□
□⑪⑩□

4
□④③② |①-②-③-|
□⑤□□ |④-⑤-⑥-|
□⑥>⑦ |⑦---|
①□□□ |⑧-⑨-⑩-|

□□□□
⑩□□⑨
⑧□□⑧
□□□□

5
④□∨□ |①-②-|
□□①□ |--③-|
□□□□ |④-⑤-|
②③⑤⑥ |--⑥-|

6
□①□④ |①-②-|
①⑦⑥□ |--③-|
⑥□□□ |④-⑤-|
②③⑤□ |--⑥⑦|

7
①②③④ |①---|
□□□□ |②---|
□□□□ |③---|
□□□□ |④---|

8
□□□□ |①-②-|
⑧□□① |③-④-|
⑦□□② |⑤-⑥-|
⑥⑤④③ |⑦-⑧-|

9
①□③□ |①---|
□②□④ |--②-|
□□□□ |--③-|
□□□□ |--④---|

10
□①□④ |--①-|
②□③□ |--②--③|
□□□□ |----|
□□□□ |--④-|

11
①□④□ |--①-|
⑤②③⑥ |--②--③|
□□□□ |--④-|
□□□□ |⑤-⑥---|

12
□②□□ |①---|
□□④□ |②--③-④|
①□□③ |--⑤---|
∧□□⑤ |⑥-⑦⑧--|

□□□□
□□□□
⑥⑥⑧□
□□⑦□

13
①□□□ |①---|
□③□□ |②-③-|
□□□□ |--④-|
①②□□ |⑤-⑥---|

□□④□
□□□⑥
□⑤□□
④□□□

14
□①□□ |--①-|
③□⑤□ |②-③④-⑤|
□□□□ |--⑥-|
⑤②□④ |⑦-⑧-|

∨□□□
|□□□
⑥□□□
□□□□

□□□⑧
□□□□
⑦⑦□□
□□⑧□

15
①□⑥□ |--①-|
⑦⑤③⑨ |②-③④-⑤|
□⑧④⑥ |---⑥-⑦|
①②□⑨ |⑧-⑨---|

16
□□□② |①---|
□□□□ |--②-|
□□□□ |----|
①□□□ |----|

17
⑤④③② |①--②③④|
⑥⑬⑧⑦ |⑤--⑥-⑦|
①⑩⑨□ |⑧⑨⑩⑪-⑫|
⑭⑪⑫□ |---⑬-⑭|

18
④③②① |---①②③|
⑥⑦⑬⑤ |④--⑤-⑥|
⑫⑧⑨□ |⑦⑧⑨⑩-⑪|
□⑪⑩□ |--⑫⑬-⑭|

⑭□□□
□□□□
□□□□
□□□□

19
□②①□ |---①②③|
④③⑦⑥ |④--⑤-⑥|
⑫⑨⑧□ |⑦⑧⑨⑩⑪⑫|
⑪⑩⑬⑤ |--⑬⑭-⑮|

□□□□
⑭□□□
□□□⑮
□□□□

20
①⑦③⑤ |①②③④--|
⑧②⑥④ |---⑤⑥⑦|
⑭⑩⑪□ |⑧--⑨-⑩|
⑨⑬□⑫ |⑪-⑫⑬⑭⑮|

□□□□
□⑮□□
□□□□
□□□□

21
⑤④③② |①--②③④|
⑥⑬⑧⑦ |⑤--⑥-⑦|
□⑩⑨① |⑧⑨⑩⑪-⑫|
⑭⑪⑫□ |---⑬-⑭|

22
④③②① |---①②③|
⑥⑦⑭⑤ |④--⑤-⑥|
⑬⑧⑨⑫ |⑦⑧⑨⑩-⑪|
□⑪⑩□ |⑫-⑬⑭-⑮|

⑮□□□
□□□□
□□□□
□□□□

23
□③②① |①--②③④|
⑤④⑧⑦ |⑤--⑥-⑦|
⑬⑩⑨□ |⑧⑨⑩⑪⑫⑬|
⑫⑪⑭⑥ |--⑭⑮-⑯|

□□□⑯
⑮□□□
□□□□
□□□□

24
①②⑦□ |①②③④--|
□③④⑥ |--⑤-|
□□□⑤ |--⑥-|
□□□□ |⑦⑧⑨⑩⑪---|

□□□⑪
□□⑧□
□□⑨□
□□⑩□

25
②□□□ |①--②③④|
③⑦⑧□ |⑤--⑥-⑦|
④①⑨⑩ |⑧⑨⑩⑪-⑫|
⑤⑥□⑪ |---⑬-⑭|

□□□□
□□□⑬
⑭⑫□□
□□□□

26
④③②① |---①②③|
⑥⑦⑭□ |④--⑤-⑥|
⑬⑧⑨⑫ |⑦⑧⑨⑩-⑪|
⑤⑪⑩□ |⑫-⑬⑭-⑮|

⑮□□□
□□□□
□□□□
□□□□

27
⑭③②① |①--②③④|
⑤④□⑬ |⑤--⑥-⑦|
⑦⑧⑪⑫ |⑧⑨⑩⑪⑫⑬|
□⑨⑩⑥ |--⑭⑮-⑯|

□□⑮⑯
□□□□
□□□□
□□□□

28
□⑤⑦□ |①-②-|
③①□□ |③--④-⑤|
②④□□ |--⑥-|
□⑥⑧□ |⑦-⑧-|

29
⑬④□② |①--②③④|
⑧⑫⑩⑭ |⑤--⑥-⑦|
⑤⑨③⑪ |⑧⑨⑩⑪-⑫|
①⑥⑮⑦ |⑬--⑭-⑮|

30
⑬④□② |①--②③④|
⑧⑫⑩⑭ |⑤--⑥-⑦|
⑤⑨③⑪ |⑧⑨⑩⑪-⑫|
①⑥⑮⑦ |⑬--⑭-⑮|

31
④⑭⑧① |①-②-|
⑬⑦□⑤ |③-④-|
⑫□⑥⑨ |⑤-⑥⑦-⑧|
③⑪⑩② |⑨⑩⑪⑫⑬⑭|

32
□④□① |①---|
④□□② |②---|
□④□③ |③-④-|
⑤□□⑤ |--⑤-|

33
②<①① |①---|
□□①① |②-③④-⑤|
□□□□ |--⑥-|
□②②□ |---⑦-⑧|

③⑥⑥⑥
□□□□
⑤⑤⑤④
⑦□□□

⑧□□□
□□□□
□□□□
□□□□

34
□□②② |--①-|
④④④□ |②--③-④|
①①□⑥ |--⑤-|
⑤□③③ |--⑥---|

35
□④⑧⑨ |①-②③-④|
③②④⑥ |⑤--⑥-⑦|
①③②⑦ |---⑧-⑨|
⑤①⑧⑨ |--⑩⑪-⑫|

⑫□□□
□□⑪□
⑩□□□
□□□□

36
⑦①②□ |--①---|
③③⑥⑥ |②--③-④|
⑤□①② |--⑤⑥--|
④④⑧⑧ |⑦-⑧---|

37
□①①① |①---|
④④④□ |②--③-④|
②②□③ |---⑤-⑥|
□⑤⑤⑤ |⑦-⑧⑨-⑩|

□□⑥□
□□□⑦
□⑨⑧□
⑩□□□

38
⑥④④④ |--①-|
①①□□ |②--③-④|
③□□⑦ |---⑤-⑥|
⑤□②② |--⑦---|

39
□④⑧⑨ |①-②③-④|
③②④⑥ |⑤--⑥-⑦|
①③②⑦ |---⑧-⑨|
⑤①⑧⑨ |--⑩⑪-⑫|

□□□□
□□⑫□
□⑪□□
□⑩□□

40
①②□□ |①-②③--|
④⑥⑧⑧ |④--⑤-⑥|
⑦⑦③⑤ |⑦-⑧-|
□□□□ |⑨-⑩-|

□□□⑩
□□□□
□□⑨□
□□□⑨

41
①□□□ |①-②---|
|□□□ |③--④-⑤|
|□□□ |---⑥⑦⑧|
∧□□□ |⑨--⑩-⑪|

②⑥⑥⑥
④③③⑦
⑤⑤⑤⑧
⑩③③⑨

⑪□□□
□□□□
□□□□
□□□□

42
⑤②②□ |--①-|
④④④□ |②--③-④|
①①□⑥ |--⑤-|
□□③③ |--⑥---|

43
□④⑧⑨ |①-②③-④|
③②④⑥ |⑤--⑥-⑦|
①③②⑦ |---⑧-⑨|
⑤①⑧⑨ |--⑩⑪-⑫|

□⑫□□
□□□□
□⑪□□
□⑩□□

44
①□□□ |①②③④--|
②⑤⑥□ |--⑤⑥⑦⑧|
③□⑦⑧ |⑨⑩⑪--⑫|
④⑪⑩⑨ |⑬-⑭⑮-⑯|

□⑮□□
⑫□□□
⑭⑬□□
□□□□

⑯―<□
□□□□
□□□□
□□□□

45
①□⑤⑤ |--①-|
④④④□ |②--③-④|
⑧⑦⑥③ |--⑤-|
□②②□ |⑥⑦⑧⑨⑩⑪|

□□□□
□□□□
□□□□
⑪⑩⑨□

46
□②②□ |--①-|
③□①① |②--③-④|
□④④④ |--⑤-|
□□⑥⑤ |--⑥---|

47
□④⑧⑨ |①-②③-④|
③②④⑥ |⑤--⑥-⑦|
①③②⑦ |---⑧-⑨|
⑤①⑧⑨ |--⑩⑪-⑫|

⑫□□□
⑪□□□
⑩□□□
□□□□

48
□□□□ |①-②-③-|
⑨①②⑩ |④-⑤⑥⑦-|
⑧□③⑥ |⑧-⑨⑩⑪-|
⑦⑤④□ |⑫-⑬-|

□□□□
□⑪□□
□□□□
□□□□

□∨□⑬
□|□□
□⑫□□
□□□□

49
④③②□ |①-②-|
⑤□□□ |③-④-|
⑥①□□ |⑤-⑥-|
⑦□□□ |⑦-⑧⑨--|

□□□⑨
□□□□
□⑧□□
□□□□

50
□⑦⑤□ |①-②-|
□□①③ |③--④-⑤|
□□④② |--⑥-|
□⑧⑥□ |⑦-⑧-|

51
④⑤⑥⑦ |①-②-|
③□□□ |③-④-|
②⑧□□ |⑤-⑥-|
①□□□ |⑦-⑧-|

52
□□⑤□ |①-②-|
□□①③ |③--④-⑤|
□□④② |--⑥-|
□□⑥□ |⑦-⑧-|

□⑦□□
□⑧□□
□>―⑦
□□□□

53
①□□① |①-②-|
□□□| |③-④-|
□□□| |⑤-⑥-|
□□□∧ |⑦-⑧⑨--|

□□②□
③□④□
⑤⑨⑥①
⑦⑧□□

54
①②⑤⑧ |①-②-|
③④□□ |③--④-⑤|
⑥⑦□⑧ |⑥-⑦-|
⑧⑨□□ |⑧-⑨-|

55
□③⑨□ |①-②③--|
⑧①④② |④--⑤-⑥|
□⑫⑦⑪ |⑦⑧⑨⑩-⑪|
⑤⑩□⑥ |⑫⑬⑭⑮-⑯|

□⑭□⑯
□□□⑬
□□□□
□□⑮□

56
③□③⑥ |①--②-③|
③③③⑤ |--④-|
③□③④ |--⑤-|
①□□② |--⑥-|

57
①<□□ |①-②③--|
□□□□ |④-⑤-|
□□□□ |⑥-⑦-|
□□□□ |⑧⑨⑩⑪⑫⑬|

②□③⑦
⑥④□⑤
⑤□□③
④⑦⑥□

⑬⑫⑪□
□□□□
□⑩⑨⑧
□□□□

58
⑥□⑦⑤ |①-②-|
④③①③ |③--④-⑤|
②⑥□⑦ |--⑥-|
②④⑤① |⑦-⑧-|

□□□□
□□⑧□
⑧□□□
□□□□

59
⑤③④□ |①-②-|
②□⑥③ |③-④-|
⑤④①□ |⑤-⑥-|
①②□⑥ |⑦-⑧-|

□□□□
□□□□
□□□⑦
⑧⑦⑧□

60
□⑤①① |①-②-|
③①③③ |③--④-⑤|
②④⑥⑥ |⑥-⑦-|
□⑦□□ |⑧-⑨-|

□□⑧□
□□⑨□
□□□□
□□⑧⑧

61
①⑧⑨⑩ |----|
③□④② |①-②-|
⑤⑥⑦□ |③-④-|
①④②③ |⑤⑥⑦⑧⑨⑩|

62
⑤⑦□⑥ |①-②-|
③①③④ |③--④-⑤|
⑦□⑥② |--⑥-|
①⑤④② |⑦-⑧-|

□□□□
□⑧□□
□□□⑧
□□□□

63
□④③⑤ |①-②-|
③⑥□② |③-④-|
□①④⑤ |⑤-⑥-|
⑥□②① |⑦-⑧-|

□□□□
□□□□
⑦□□□
□⑧⑦⑧

64
①①⑤□ |①-②-|
③③①③ |③--④-⑤|
⑥⑥④② |⑥-⑦-|
□□⑦□ |⑧-⑨-|

□⑧□□
>⑨□□
□□□□
⑧⑧□□

65
②―<□ |--①-|
□①①② |②-③④--|
□□□□ |⑤--⑥⑦⑧|
□□□□ |⑨⑩⑪⑫⑬⑭|

③□□□
⑥⑬⑫□
⑦⑭⑪④
⑧⑨⑩⑤

66
①①□⑤ |①-②-|
③□□③ |③--④-⑤|
□□□② |--⑥-|
④④⑤② |⑦-⑧-|

⑥□⑦□
□□⑧□
⑧⑥□⑦
□□□□

67
⑤③④□ |①-②-|
②□⑥③ |③-④-|
⑤④①□ |⑤-⑥-|
①②□⑥ |⑦-⑧-|

□□□□
□□□□
□□□⑦
⑧⑦⑧□

68
□⑤①① |①-②-|
③①③③ |③--④-⑤|
②④⑥⑥ |⑥-⑦-|
□⑦□□ |⑧-⑨-|

□□⑧□
□>⑨□
□□□□
□□⑧⑧

69
④<□□ |---①②③|
□□①□ |④⑤-⑥--|
③②①□ |⑦-⑧-|
□□□□ |⑨-⑩-|

⑤⑩⑥⑧
⑦⑧□⑨
⑩□□⑥
□⑦⑨□

70
⑥⑤④□ |①-②-|
④□②□ |③-④-|
⑤⑥①③ |⑤-⑥-|
①③□② |⑦⑧⑨⑩⑪⑫|

□□□□
□□⑦⑩
□□⑧⑪
□□⑨⑫

71
□⑤□□ |①-②-|
③①□□ |③--④-⑤|
②④□□ |--⑥-|
□⑥□□ |⑦---|

⑦―<□
□⑦―<
□□□□
□□□□

72
①⑧⑤□ |①-②-|
□①①③ |③--④-⑤|
⑥⑥④② |⑥-⑦-|
⑧⑧⑦⑦ |⑧-⑨-|

□□□□
□⑨□□
□□□□
□□□□

73
⑦⑧□② |①--②③④|
①⑨⑩③ |⑤--⑥-⑦|
⑥⑫⑪④ |⑧⑨⑩⑪-⑫|
□□□⑤ |---⑬-⑭|

□□□□
□□□⑬
□□□□
□□⑭□

74
④③②① |---①②③|
⑥⑦□□ |④--⑤-⑥|
□⑧⑨⑫ |⑦⑧⑨⑩-⑪|
□⑪⑩⑤ |⑫---|

75
□⑤⑦① |①-②-|
③□□□ |③--④-⑤|
②④□□ |--⑥-|
□⑥⑧□ |⑦-⑧-|

76
⑥⑤⑥④ |①-②-|
⑦□⑦③ |③-④-|
⑥⑦⑥② |⑤-⑥-|
⑦□⑦① |⑦-⑧-|

□□□□
□⑧□⑧
□□□□
□⑧□⑧
最終更新:2024年01月23日 17:47