アットウィキロゴ
HAPPY limelight
Qrispy Joybox feat.Megumi Tatsumi

BASIC

Level: 2
BPM: 135
Notes: 157

1
口口口口 |----|
口口口口 |----|
口口口口 |----|
口口口口 |----|
2
口口口口 |①---|
口①②口 |----|
口口口口 |②---|
口口口口 |----|
3
口口口口 |①---|
口口口口 |②---|
①②③④ |③---|
口口口口 |④---|
4
口②口口 |①---|
口①口口 |----|
口口口口 |②---|
口口口口 |----|
5
口口口口 |①---|
口口口口 |②---|
口③②① |③---|
口口口口 |----|
6
口口口口 |①---|
①②③④ |②---|
口口口口 |③---|
口口口口 |④---|
7
口口口口 |----|
口口口口 |----|
口口口口 |----|
口口口口 |----|
8
口口②口 |①---|
口口①口 |----|
口口口口 |②---|
口口口口 |----|
9
口口口口 |①---|
口口口口 |②---|
①②③口 |③---|
口口口口 |----|
10
口口口口 |①---|
④③②① |②---|
口口口口 |③---|
口口口口 |④---|
11
口口口口 |----|
口口口口 |----|
口口口口 |----|
口口口口 |----|
12
口口口口 |①---|
①①口口 |----|
口口口口 |----|
口口口口 |----|
13
口口口口 |①---|
口口①① |----|
口口口口 |----|
口口口口 |----|
14
口口口口 |①---|
口口口口 |----|
①①口口 |----|
口口口口 |----|
15
口口口口 |①---|
口口口口 |----|
口口①① |----|
口口口口 |----|
16
①①口口 |①---|
口口口口 |----|
口口口口 |----|
口口口口 |----|
17
口口①① |①---|
口口口口 |----|
口口口口 |----|
口口口口 |----|
18
口口口口 |①---|
口口口口 |----|
口口口口 |----|
①①口口 |----|
19
口口口口 |①---|
口口口口 |----|
口口口口 |----|
口口①① |----|
20
口口口口 |①---|
口②口口 |----|
口口口口 |②---|
口①口口 |----|
21
口口口① |①---|
口口口② |②---|
口口口③ |③---|
口口口口 |----|
22
口口口口 |①---|
口口②口 |----|
口口口口 |②---|
口口①口 |----|
23
①口口口 |①---|
②口口口 |②---|
③口口口 |③---|
口口口口 |----|
24
口口口口 |①---|
口②口口 |----|
口口①口 |②---|
口口口口 |----|
25
口口口④ |①---|
口口口③ |②---|
口口口② |③---|
口口口① |④---|
26
口②②口 |①---|
口③③口 |--②-|
口①①口 |----|
口口口口 |--③-|
27
口口口口 |----|
口口口口 |--①-|
口①①口 |----|
口口口口 |----|
28
口①口口 |①---|
口口②口 |----|
口口口口 |②---|
口口口口 |----|
29
口口口口 |①---|
口口口口 |----|
口①口口 |②---|
口口②口 |----|
30
口口口口 |①---|
口口口口 |----|
②口口② |②---|
①口口① |----|
31
②口口② |①---|
①口口① |----|
口口口口 |②---|
口口口口 |----|
32
口口①口 |①---|
口②口口 |----|
口口口口 |②---|
口口口口 |----|
33
口口口口 |①---|
口口口口 |----|
口口①口 |②---|
口②口口 |----|
34
口口口口 |①---|
口③③口 |----|
②口口② |②---|
①口口① |--③-|
35
口①①口 |----|
口口口口 |--①-|
口口口口 |----|
口口口口 |----|
36
口口口口 |----|
口口口口 |----|
口口口口 |----|
口口口口 |----|
37
口口③口 |①---|
口②口口 |②---|
①口口口 |③---|
口口口口 |----|
38
口③口口 |①---|
口口②口 |②---|
口口口① |③---|
口口口口 |----|
39
口口口口 |①---|
口③④口 |②---|
口①②口 |③---|
口口口口 |④---|
40
口口口口 |----|
口口口口 |----|
口口口口 |----|
口口口口 |----|
41
口口②口 |①---|
口③口① |②---|
口口口口 |③---|
口口口口 |----|
42
口②口口 |①---|
①口③口 |②---|
口口口口 |③---|
口口口口 |----|
43
口②②口 |①---|
口③③口 |--②-|
口①①口 |----|
口口口口 |--③-|
44
口口口口 |----|
口口口口 |--①-|
口①①口 |----|
口口口口 |----|
45
口口口口 |①---|
口②口口 |②---|
①口③口 |③---|
口④口口 |④---|
46
口口口口 |①---|
口口②口 |②---|
口③口① |③---|
口口④口 |④---|
47
口②③口 |①---|
①口口④ |②---|
口口口口 |③---|
口口口口 |④---|
48
口口口口 |①---|
口口口口 |----|
口①口口 |----|
口口口口 |----|
49
口口②口 |①---|
口③口① |②---|
口口④口 |③---|
口口口口 |④---|
50
口②口口 |①---|
①口③口 |②---|
口④口口 |③---|
口口口口 |④---|
51
口口口口 |①---|
口③③口 |--②-|
口②②口 |----|
①口口① |--③-|
52
口①①口 |----|
口口口口 |--①-|
口口口口 |----|
口口口口 |----|
53
口③②口 |①---|
④口口① |②---|
口口口口 |③---|
口口口口 |④---|
54
口口口口 |①---|
口②①口 |②---|
口④③口 |③---|
口口口口 |④---|
55
口口口口 |①---|
口口口口 |②---|
①口口④ |③---|
口②③口 |④---|
56
口口口口 |①---|
口③④口 |②---|
口①②口 |③---|
口口口口 |④---|

accuracy: 100%
最終更新:2024年07月20日 01:52