アットウィキロゴ
HAPPY limelight
Qrispy Joybox feat.Megumi Tatsumi

ADVANCED

Level: 5
BPM: 135
Notes: 301

1
口口口口 |----|
口口口口 |----|
口口口口 |----|
口口口口 |----|
2
口②⑥口 |①-②-|
①⑦③⑤ |③-④-|
口口口口 |⑤-⑥-|
口④⑧口 |⑦-⑧-|
3
口口口口 |①-②-|
⑤⑥⑦⑧ |③-④-|
①②③④ |⑤-⑥-|
口口口口 |⑦-⑧-|
4
口口②口 |--①-|
④口口③ |②---|
④①口③ |③---|
口口口口 |④---|
5
口④口口 |①-②-|
口口③口 |③-④-|
口②口⑤ |--⑤-|
⑥口①口 |--⑥-|
6
口⑥⑦口 |--①-|
口④⑤口 |②-③-|
口②③口 |④-⑤-|
口口①口 |⑥-⑦-|
7
口口口口 |----|
口口口口 |----|
口口口口 |----|
口口口口 |----|
8
口②口口 |--①-|
③口口④ |②---|
③口口④ |③---|
口口①口 |④---|
9
⑤口④⑤ |①-②-|
口③口口 |③-④-|
口口②口 |--⑤-|
⑥①口⑥ |--⑥-|
10
口⑦⑥口 |--①-|
口⑤④口 |②-③-|
口③②口 |④-⑤-|
口①口口 |⑥-⑦-|
11
口口口口 |----|
口口口口 |----|
口口口口 |----|
口口口口 |----|
12
②③④口 |----|
口口①① |①---|
口口口口 |--②-|
口口口口 |③-④-|
13
口口口口 |--①-|
口口口口 |----|
口①①口 |----|
口口口口 |----|
14
口④③② |----|
①①口口 |①---|
口口口口 |--②-|
口口口口 |③-④-|
15
口口口口 |--①-|
口口①口 |--②-|
口②口口 |----|
口口口口 |----|
16
②③④口 |----|
口口①① |①---|
口口口口 |--②-|
口口口口 |③-④-|
17
口口口口 |--①-|
口①口口 |--②-|
口口②口 |--③-|
口③口④ |--④-|
18
口口口④ |①-②-|
①①②② |--③-|
口口口口 |----|
口③③口 |--④-|
19
口口口口 |--①-|
口口①口 |--②-|
口②口口 |--③-|
③口口口 |----|
20
③口口口 |----|
口口口④ |①---|
口口口② |②-③-|
口①①口 |--④-|
21
口口口口 |--①-|
③②①口 |--②-|
口口口口 |--③-|
口口口口 |----|
22
口口口③ |----|
④口口口 |①---|
②口口口 |②-③-|
口①①口 |--④-|
23
口口口口 |--①-|
口①②③ |--②-|
口口口口 |--③-|
口口口口 |----|
24
口③口口 |----|
口口口④ |①---|
口口②口 |②-③-|
口①①口 |--④-|
25
口口口口 |--①-|
③②①口 |--②-|
口④口口 |--③-|
口口口口 |--④-|
26
②口①② |①---|
③口口口 |--②-|
口口口口 |----|
口口口口 |--③-|
27
口④④口 |--①-|
口口②口 |--②-|
口①口③ |--③-|
口口口口 |--④-|
28
口口④口 |--①-|
口②口口 |②---|
③口口③ |③---|
口⑤①口 |④-⑤-|
29
口④口口 |①-②-|
⑥口③⑥ |③-④-|
⑤②口⑤ |--⑤-|
口口①口 |--⑥-|
30
口②①口 |①-②-|
口④③口 |----|
口口口口 |③-④-|
口口口口 |----|
31
口口口口 |①-②-|
口口口口 |----|
口②①口 |③-④-|
口④③口 |----|
32
口口口口 |--①-|
口②④口 |②---|
③口口③ |③---|
口口①口 |④---|
33
口口①口 |①-②-|
⑥②口⑥ |③-④-|
⑤口③⑤ |--⑤-|
口④口口 |--⑥-|
34
口②①口 |①-②-|
口④③口 |----|
口口口⑤ |③-④-|
口口口⑤ |--⑤-|
35
口口口口 |--①-|
口口口口 |--②-|
③②①口 |--③-|
③②①口 |----|
36
口口口口 |----|
口口口口 |----|
口口口口 |----|
口口口口 |----|
37
口口口口 |--①-|
②口口② |②---|
①口口①
口口口口

口口③③
口口口口
④④口口 |③---|
口口口口 |④---|
38
口⑥⑥口 |①-②-|
④口②口 |③-④-|
口⑤⑤口 |--⑤-|
口③口① |--⑥-|
39
⑥口口⑦ |--①-|
④口口⑤ |②-③-|
②口口③ |④-⑤-|
口口口① |⑥-⑦-|
40
口口口口 |----|
口口口口 |----|
口口口口 |----|
口口口口 |----|
41
口口③③ |--①-|
②口口② |②---|
①⑤口① |③---|
④口口口 |④-⑤-|
42
口口④口 |①-②-|
口③口口 |③-④-|
口口口②
口口①口

口口口口
口⑥⑥口
口口口口 |--⑤-|
口⑤⑤口 |--⑥-|
43
口⑥⑥口 |--①-|
④口口⑤ |②-③-|
②口口③ |④-⑤-|
口口口① |--⑥-|
44
口口口口 |--①-|
口口口口 |②-③-|
口②口口 |----|
①口③口 |----|
45
口口口口 |--①-|
②⑤口② |②---|
④③③口 |③---|
①口口① |④-⑤-|
46
口口口口 |①-②-|
口口①口 |③-④-|
口口口② |----|
口④③口 |----|
47
②口口② |--①-|
口口口口 |②---|
①口口①
口口口口

口口口口
④④③③
⑥⑥⑤⑤ |③-④-|
口口口口 |⑤-⑥-|
48
口口口口 |----|
口口口口 |----|
口口口口 |----|
口口口口 |----|
49
口口口口 |--①-|
②口③② |②---|
口口⑤口 |③---|
①③④① |④-⑤-|
50
口口口口 |①-②-|
④③口口 |③-④-|
口②口①
口口口口

⑥口口⑥
口口口口
⑤口口⑤ |--⑤-|
口口口口 |--⑥-|
51
⑥⑤②⑥ |--①-|
③口口口 |②-③-|
口④①口 |④-⑤-|
口口口口 |--⑥-|
52
口口口口 |--①-|
口口口口 |②-③-|
口口②口 |----|
口③口① |----|
53
口⑥②口 |①-②-|
⑤③⑦① |③-④-|
口口口口 |⑤-⑥-|
口⑧④口 |⑦-⑧-|
54
口口口口 |①-②-|
口⑦⑥⑤ |③-④-|
④③②① |⑤-⑥-|
口口⑧口 |⑦-⑧-|
55
口②⑥口 |①-②-|
①⑦③⑤ |③-④-|
口口口口 |⑤-⑥-|
口④⑧口 |⑦-⑧-|
56
口口口口 |①-②-|
⑤⑥⑦⑧ |③-④-|
①②③④ |⑤-⑥-|
口口口口 |⑦-⑧-|

accuracy: 100%
最終更新:2024年07月20日 01:52