アットウィキロゴ
HAPPY limelight
Qrispy Joybox feat.Megumi Tatsumi

EXTREME

Level: 8
BPM: 137
Notes: 614

1
口口口口 |----|
口口口口 |----|
口口口口 |----|
口口口口 |----|
2
①②③④ |①②③④|
⑤口口⑪ |⑤-⑥-|
⑫口口⑥ |⑦⑧⑨⑩|
⑩⑨⑧⑦ |⑪-⑫-|
3
①②③④ |①②③④|
⑤⑥⑦⑧ |⑤⑥⑦⑧|
⑨⑩⑪⑫ |⑨⑩⑪⑫|
⑬⑭⑮⑯ |⑬⑭⑮⑯|
4
②④③② |--①-|
口①①口 |②---|
口口口口 |③---|
③口口④ |④---|
5
④⑤⑤④ |①-②-|
①③②① |③-④-|
口⑥⑥口 |--⑤-|
口②③口 |--⑥-|
6
口口口② |--①-|
口口②口 |②-③-|
③口口①
口③①口

④⑥口⑦
口④⑦⑤
口⑥⑤口 |④-⑤-|
口口口口 |⑥-⑦-|
7
口口口口 |①②③④|
⑤口口口 |⑤-⑥⑦|
口口⑦⑥
①②③④

口口口口
口口口⑩
⑨⑧口口 |⑧⑨⑩-|
⑪⑫⑬⑭ |⑪⑫⑬⑭|
8
③口口③ |①-②-|
①口口口 |③---|
口②②口
口口口口

口⑤④口
口口⑥口
口⑥口口 |④---|
④口口⑤ |⑤-⑥-|
9
⑤④④⑤ |①-②-|
①口口① |③-④-|
③口口② |--⑤-|
⑥②③⑥ |--⑥-|
10
④②⑤⑥ |--①-|
口①⑥③ |②-③-|
②④①⑤ |④-⑤-|
⑦⑧③口 |⑥-⑦⑧|
11
③口口口 |①②③-|
口口口口 |④⑤⑥⑦|
⑦⑥⑤④
口口①②

⑬口口⑧
⑨⑩⑪⑫
口口口口 |⑧-⑨⑩|
口口口口 |⑪⑫⑬-|
12
口口口口 |①---|
②口口口 |②---|
②口口口
口口①口

口口口口
口口口④
⑤⑤③口 |--③-|
口口口口 |④-⑤-|
13
①①口口 |--①-|
口口口口 |----|
口口口口
口口口口

口④②口
口口口口
口口口口 |--②-|
口③口口 |③-④-|
14
口口口口 |①---|
口口口② |②---|
口口口②
口口①口

口口口口
④口口口
口③⑤⑤ |--③-|
口口口口 |④-⑤-|
15
口④②② |--①-|
口口①① |--②-|
口口口口 |--③-|
口③⑤口 |④-⑤-|
16
口口①口 |①---|
②口口④ |②---|
②口③口 |--③-|
⑤⑤口口 |④-⑤-|
17
③③口口 |--①-|
②②口口 |--②-|
①①口口 |--③-|
口④④口 |--④-|
18
口口口口 |①-②-|
③②①③ |--③-|
②口口①
③口口③

④口口口
口④口口
口口口口 |----|
口口口口 |--④-|
19
口口口② |--①-|
口口②口 |--②-|
口③①口 |--③-|
③口口① |----|
20
口⑤口④ |①---|
口口④口 |②---|
⑤②②③ |③-④-|
口口③① |--⑤-|
21
口口③口 |--①-|
②口口① |--②-|
口口口③ |--③-|
口②①口 |----|
22
④口⑤口 |①---|
口④口口 |②---|
③②②⑤ |③-④-|
①③口口 |--⑤-|
23
口①口口 |--①-|
③口口② |--②-|
①口口口 |--③-|
口③②口 |----|
24
口⑤口④ |①---|
口口④口 |②---|
⑤②②③ |③-④-|
口口③① |--⑤-|
25
口口③口 |--①-|
①口口② |--②-|
口④口③ |--③-|
口①②口 |--④-|
26
②口口② |①---|
口①①口 |--②-|
口口口口
口口口口

口口口口
③③口口
口口③口 |----|
口口口口 |--③-|
27
口口②口 |--①-|
④口口③ |--②-|
②②口① |--③-|
④口①③ |--④-|
28
②口②口 |--①-|
口②口口 |②---|
口口口口
口口①口

口③口③
口口③口
口口口口 |③---|
口⑤④口 |④-⑤-|
29
④⑥⑥③ |①-②-|
④口口③ |③-④-|
②②①① |--⑤-|
⑤口口⑤ |--⑥-|
30
口⑥⑥口 |①②③④|
④口口③ |----|
②④③① |⑤-⑥-|
⑤②①⑤ |----|
31
②⑤⑤① |①②③④|
④②①③ |----|
口④③口 |⑤-⑥-|
⑥口口⑥ |----|
32
④④③口 |①-②-|
②口口口 |③---|
口①①③ |④---|
口②⑤⑤ |⑤---|
33
口④①口 |①-②-|
③口口② |③-④-|
②口口③
口①④口

口口⑤口
⑥口口口
口口口⑥ |--⑤-|
口⑤口口 |--⑥-|
34
④口口③ |①②③④|
口②①口 |----|
口④③口
②口口①

⑨⑧⑦⑨
⑧口口⑦
⑥⑨⑨⑤ |⑤⑥⑦⑧|
口⑥⑤口 |--⑨-|
35
口口口口 |--①-|
口②②口 |--②-|
③口口① |--③-|
②口口② |----|
36
口口口口 |--①-|
④⑨⑧② |②-③-|
口⑦⑥口 |④-⑤-|
⑤③①口 |⑥⑦⑧⑨|
37
③口①③ |①-②-|
⑧⑦⑤⑥ |③-④-|
④口口口 |⑤-⑥-|
⑦②②⑤ |⑦-⑧-|
38
⑧③④⑥ |①-②-|
口④③口 |③-④-|
①⑧⑥② |⑤-⑥-|
⑤②①⑦ |⑦-⑧-|
39
口口口口 |①-②-|
口④口③ |③-④-|
③口口口
②①②④

⑦⑤⑦⑧
口口⑥口
⑧口口⑤ |⑤-⑥-|
口⑥口口 |⑦-⑧-|
40
口口口口 |①②③④|
口口口⑤ |⑤-⑥⑦|
口口④③
⑥⑦②①

口口口口
⑩口⑭⑬
⑧⑨⑫⑪ |⑧⑨⑩-|
口口口口 |⑪⑫⑬⑭|
41
口③③① |①-②-|
口口口口 |③-④-|
口口口口
②口④②

⑤口口口
⑦口⑥⑦
口⑤口口 |⑤-⑥-|
⑧口口⑧ |⑦-⑧-|
42
②③④① |①-②-|
口口口口 |③-④-|
口④③口
口①②口

口口口⑧
⑥⑦口口
口口⑧⑤ |⑤-⑥-|
口⑥口口 |⑦-⑧-|
43
口③口口 |①-②-|
口口④口 |③-④-|
②口口③
④口②①

⑥口口⑥
口⑦口⑦
口⑤⑤口 |⑤-⑥-|
口⑦口⑦ |--⑦-|
44
③口②③ |--①-|
⑪⑩⑨⑧ |②-③-|
③⑦⑥③ |④⑤⑥⑦|
①⑤④口 |⑧⑨⑩⑪|
45
口③③① |①-②-|
口口口口 |③-④-|
②口口②
口④口口

⑦口口⑧
口口口⑤
口⑧⑦口 |⑤-⑥-|
口口⑤⑥ |⑦-⑧-|
46
⑥④⑧口 |①-②-|
④③①② |③-④-|
①⑦口③ |⑤-⑥-|
口口②⑤ |⑦-⑧-|
47
⑤⑦⑥⑧ |①-②-|
③⑥⑦③ |③-④-|
口⑤⑧① |⑤-⑥-|
口②②④ |⑦-⑧-|
48
⑦⑧口口 |①②③④|
⑤⑥口口 |⑤⑥⑦⑧|
③④口口
①②口口

口口⑨⑩
口口口口
⑮⑭⑬⑫ |⑨⑩⑪-|
⑪口口口 |⑫⑬⑭⑮|
49
③口口③ |①-②-|
⑤⑦⑧① |③-④-|
口⑧⑦④ |⑤-⑥-|
⑤②②⑥ |⑦-⑧-|
50
口③④口 |①-②-|
④口口① |③-④-|
②口口③
口①②口

⑧口口⑥
口口口口
口口⑤口 |⑤-⑥-|
⑥⑦口⑧ |⑦-⑧-|
51
⑦⑥⑥⑦ |①-②-|
②③③⑤ |③-④-|
①⑤口④ |⑤-⑥-|
④口②口 |--⑦-|
52
口口口口 |--①-|
口②②口 |②-③-|
③①①③ |----|
口③③口 |----|
53
口⑫口口 |①②③④|
①②⑧⑦ |⑤-⑥-|
③④⑩⑨ |⑦⑧⑨⑩|
⑤口⑥⑪ |⑪-⑫-|
54
⑩⑨②① |①②③④|
⑫⑪④③ |⑤⑥⑦⑧|
口⑬⑥⑤ |⑨⑩⑪⑫|
⑭口⑧⑦ |⑬-⑭-|
55
口口⑫口 |①②③④|
⑦⑧②① |⑤-⑥-|
⑨⑩④③ |⑦⑧⑨⑩|
⑪⑥口⑤ |⑪-⑫-|
56
①②⑨⑩ |①②③④|
③④⑪⑫ |⑤⑥⑦⑧|
⑤⑥⑬⑭ |⑨⑩⑪⑫|
⑦⑧⑮⑯ |⑬⑭⑮⑯|

accuracy: 100%
最終更新:2024年08月29日 07:16