アットウィキロゴ
It's my Miracle
Another Infinity feat. Mayumi Morinaga

BASIC

Level: 3
BPM: 175
Notes: 251

1
口口口口 |----|
口口口口 |----|
口口口口 |----|
口口口口 |----|
2
口口口口 |----|
口口口口 |----|
口口口口 |----|
口口口口 |----|
3
①②口口 |①---|
口口口口 |----|
口口口口 |②---|
口口口口 |----|
4
口口口口 |①---|
①②口口 |----|
口口口口 |②---|
口口口口 |----|
5
口口②① |①---|
口口口口 |----|
口口口口 |②---|
口口口口 |----|
6
口口口口 |①---|
口口②① |----|
口口口口 |②---|
口口口口 |----|
7
①②③④ |①---|
口口口口 |②---|
口口口口 |③---|
口口口口 |④---|
8
口口口口 |①---|
①②③④ |②---|
口口口口 |③---|
口口口口 |④---|
9
口口口口 |①---|
口口口口 |②---|
①②③④ |③---|
口口口口 |④---|
10
口口口口 |①---|
口口口口 |----|
口口口口 |----|
口①①口 |----|
11
口口①口 |①---|
口②口口 |②---|
口口③口 |③---|
口口口口 |----|
12
口口口口 |①---|
①口口② |----|
①口口② |②---|
口口口口 |----|
13
口①口口 |①---|
口口②口 |②---|
口③口口 |③---|
口口口口 |----|
14
口口口① |①---|
②口口口 |②---|
口口口③ |③---|
口口口口 |----|
15
口①口口 |①---|
口口②口 |②---|
口③口口 |③---|
口口口口 |----|
16
口口口口 |①---|
②口口① |----|
②口口① |②---|
口口口口 |----|
17
口口①口 |①---|
口②口口 |②---|
口口③口 |③---|
口口口口 |----|
18
口口口口 |①---|
②口口② |----|
②口口② |②---|
口①①口 |----|
19
口口②① |①---|
口口口口 |----|
口口口口 |②---|
口口口口 |----|
20
口口口口 |①---|
口口②① |----|
口口口口 |②---|
口口口口 |----|
21
口口口口 |①---|
口口口口 |----|
口口②① |②---|
口口口口 |----|
22
口口口口 |①---|
口口口口 |----|
口口口口 |②---|
口口②① |----|
23
①②口口 |①---|
口口口口 |----|
口口口口 |②---|
口口口口 |----|
24
口口口口 |①---|
①②口口 |----|
口口口口 |②---|
口口口口 |----|
25
口口口口 |①---|
口口口口 |----|
①②口口 |②---|
口口口口 |----|
26
口口口口 |①---|
口口口口 |----|
口口口口 |②---|
①②口口 |----|
27
口口①口 |①---|
口②口口 |②---|
口口③口 |③---|
口口口口 |----|
28
口口口口 |①---|
①口口② |----|
①口口② |②---|
口口口口 |----|
29
口①口口 |①---|
口口②口 |②---|
口③口口 |③---|
口口口口 |----|
30
口口口① |①---|
②口口口 |②---|
口口口③ |③---|
口口口口 |----|
31
口①口口 |①---|
口口②口 |②---|
口③口口 |③---|
口口口口 |----|
32
口口口口 |①---|
②口口① |----|
②口口① |②---|
口口口口 |----|
33
口口①口 |①---|
口②口口 |②---|
口口③口 |③---|
口口口口 |----|
34
口口口口 |①---|
②口口② |----|
②口口② |②---|
口①①口 |----|
35
口口口口 |①---|
②口①② |----|
②口口② |②---|
口口口口 |----|
36
口口口口 |①---|
②①口② |----|
②口口② |②---|
口口口口 |----|
37
口口口口 |①---|
②口口② |----|
②口①② |②---|
口口口口 |----|
38
口口口口 |①---|
口口口口 |----|
口①口口 |----|
口口口口 |----|
39
口口口口 |①---|
口口口口 |②---|
①②③口 |③---|
口口口口 |----|
40
口口口口 |①---|
口③②① |②---|
口口口口 |③---|
口口口口 |----|
41
口口口口 |①---|
口口口口 |②---|
口④③口 |③---|
口②①口 |④---|
42
口口口口 |①---|
①口口① |----|
口口口口 |----|
口口口口 |----|
43
口口①口 |①---|
口②口口 |②---|
口口③口 |③---|
口口口口 |----|
44
口口口口 |①---|
①口口② |----|
①口口② |②---|
口口口口 |----|
45
口①口口 |①---|
口口②口 |②---|
口③口口 |③---|
口口口口 |----|
46
口口口① |①---|
②口口口 |②---|
口口口③ |③---|
口口口口 |----|
47
口①口口 |①---|
口口②口 |②---|
口③口口 |③---|
口口口口 |----|
48
口口口口 |①---|
②口口① |----|
②口口① |②---|
口口口口 |----|
49
口口①口 |①---|
口②口口 |②---|
口口③口 |③---|
口口口口 |----|
50
口口口口 |①---|
②口口② |----|
②口口② |②---|
口①①口 |----|
51
口口口口 |①---|
口①①口 |----|
口①①口 |----|
口口口口 |----|
52
口口口口 |①---|
口口口① |----|
口口口口 |----|
口口口口 |----|
53
口口口口 |①---|
口口口口 |----|
①口口口 |----|
口口口口 |----|
54
口口口口 |①---|
口口口口 |----|
口口口口 |----|
口①①口 |----|
55
口口口口 |①---|
口①①口 |----|
口①①口 |----|
口口口口 |----|
56
口口口口 |①---|
①口口口 |----|
口口口口 |----|
口口口口 |----|
57
口口口口 |①---|
口①①口 |----|
口①①口 |----|
口口口口 |----|
58
口口口口 |①---|
口①①口 |----|
口①①口 |----|
口口口口 |----|
59
口口口口 |①---|
②①①② |----|
②①①② |②---|
口口口口 |----|
60
口口①口 |①---|
口②口口 |②---|
口口③口 |③---|
口④口口 |④---|
61
口口口口 |----|
①口口① |----|
①口口① |①---|
口口口口 |----|
62
①口口口 |①---|
口口②口 |②---|
③口口口 |③---|
口口口口 |----|
63
口口口口 |①---|
口口口① |②---|
口②口口 |③---|
口口口③ |----|
64
口口口口 |①---|
口③口口 |②---|
口口②口 |③---|
口①口口 |----|
65
口口口口 |①---|
口口口口 |②---|
④③②① |③---|
口口口口 |④---|
66
口口口① |①---|
口②口口 |②---|
口口口③ |③---|
口口口口 |----|
67
口口口口 |①---|
①口口口 |②---|
口口②口 |③---|
③口口口 |----|
68
口④口口 |①---|
口口③口 |②---|
口②口口 |③---|
口口①口 |④---|
69
口口口口 |①---|
②口口① |----|
②口口① |②---|
口口口口 |----|
70
口口①口 |①---|
口②口口 |②---|
口口③口 |③---|
口④口口 |④---|
71
口口口口 |①---|
②口口① |----|
②口口① |②---|
口口口口 |----|
72
口口①口 |①---|
口②口口 |②---|
口③口口 |③---|
口口④口 |④---|
73
口①口口 |①---|
口口②口 |②---|
口口③口 |③---|
口④口口 |④---|
74
口①口口 |①---|
口口②口 |②---|
口③口口 |③---|
口口④口 |④---|
75
口口口口 |①---|
①口口② |----|
①口口② |②---|
口口口口 |----|
76
口口④口 |①---|
口③口口 |②---|
口口②口 |③---|
口①口口 |④---|
77
口口口口 |①---|
②口口② |----|
②口口② |②---|
口①①口 |----|

accuracy: 100%
最終更新:2024年06月12日 20:57