アットウィキロゴ
It's my Miracle
Another Infinity feat. Mayumi Morinaga

ADVANCED

Level: 6
BPM: 175
Notes: 458

1
口口口口 |----|
口口口口 |----|
口口口口 |----|
口口口口 |----|
2
口口口口 |----|
口口口口 |----|
口口口口 |----|
口口口口 |----|
3
①②口口 |①---|
口口口口 |----|
口口口口 |②---|
口口口口 |----|
4
口口口口 |①---|
①②口口 |----|
口口口口 |②---|
口口口口 |----|
5
口口②① |①---|
口口口口 |----|
口口口口 |②---|
口口口口 |----|
6
口口口口 |①---|
口口②① |----|
口口口口 |②---|
口口口口 |----|
7
①口口口 |①---|
②口口口 |②---|
③口口口 |③---|
④口口口 |④---|
8
口口口① |①---|
口口口② |②---|
口口口③ |③---|
口口口④ |④---|
9
口⑦⑧口 |①-②-|
口⑤⑥口 |③-④-|
口③④口 |⑤-⑥-|
口①②口 |⑦-⑧-|
10
⑦口口口 |①-②-|
⑤口口⑥ |③-④-|
③口口④ |⑤-⑥-|
①口口② |⑦---|
11
口②②口 |①---|
口④口⑥ |②---|
口①①口 |③-④-|
③口⑤口 |⑤-⑥-|
12
口②①口 |--①-|
口④③口 |②-③-|
口口⑤口 |④-⑤-|
口口口口 |----|
13
②口口② |①---|
口④口⑥ |②---|
①口口① |③-④-|
③口⑤口 |⑤-⑥-|
14
口口口口 |--①-|
④口②口 |②-③-|
口口口口 |④---|
口③口① |----|
15
口②②口 |①---|
⑥口④口 |②---|
口①①口 |③-④-|
口⑤口③ |⑤-⑥-|
16
口①②口 |--①-|
口③④口 |②-③-|
口⑤口口 |④-⑤-|
口口口口 |----|
17
②口口② |①---|
口④口⑥ |②---|
①口口① |③-④-|
③口⑤口 |⑤-⑥-|
18
口④④③ |--①-|
②⑤⑤口 |②-③-|
口⑥⑥① |④-⑤-|
口口口口 |⑥---|
19
口口口口 |①---|
④口口② |②---|
口口口口 |③---|
③口口① |④---|
20
口口②口 |①---|
口③口口 |②---|
口口①口 |③---|
口④口口 |④---|
21
口口口口 |①---|
④口口② |②---|
③口口① |③---|
口口口口 |④---|
22
④口口① |①---|
口③②口 |②---|
口口口口 |③---|
口口口口 |④---|
23
口口口口 |①---|
④口口② |②---|
口口口口 |③---|
③口口① |④---|
24
口口②口 |①---|
口③口口 |②---|
口口①口 |③---|
口④口口 |④---|
25
口口口口 |①---|
④口②口 |②---|
口③口① |③---|
口口口口 |④---|
26
口口口① |①---|
口③③口 |②---|
口口口口 |③---|
②口口口 |----|
27
口②②口 |①---|
口④口⑥ |②---|
口①①口 |③-④-|
③口⑤口 |⑤-⑥-|
28
口②①口 |--①-|
口④③口 |②-③-|
口口⑤口 |④-⑤-|
口口口口 |----|
29
②口口② |①---|
口④口⑥ |②---|
①口口① |③-④-|
③口⑤口 |⑤-⑥-|
30
口口口口 |--①-|
④口②口 |②-③-|
口口口口 |④---|
口③口① |----|
31
口②②口 |①---|
⑥口④口 |②---|
口①①口 |③-④-|
口⑤口③ |⑤-⑥-|
32
口①②口 |--①-|
口③④口 |②-③-|
口⑤口口 |④-⑤-|
口口口口 |----|
33
②口口② |①---|
口④口⑥ |②---|
①口口① |③-④-|
③口⑤口 |⑤-⑥-|
34
口④④③ |--①-|
②⑤⑤口 |②-③-|
口⑥⑥① |④-⑤-|
口口口口 |⑥---|
35
口③③口 |①---|
口④④② |②---|
口⑤⑤口 |③-④-|
①口口口 |⑤---|
36
口③③口 |①---|
②④④口 |②---|
口⑤⑤口 |③-④-|
口口口① |⑤---|
37
口③③② |①---|
口④④口 |②---|
①⑤⑤口 |③-④-|
口口口口 |⑤---|
38
②口口口 |①---|
口口③口 |②---|
口口口① |③---|
口④口口 |④---|
39
④④④④ |①---|
口③口口 |②---|
口口②① |③---|
口口口口 |④---|
40
④④④④ |①---|
口口③口 |②---|
①②口口 |③---|
口口口口 |④---|
41
口⑦⑧口 |①-②-|
口⑤⑥口 |③-④-|
口③④口 |⑤-⑥-|
口①②口 |⑦-⑧-|
42
⑦口口⑧ |①-②-|
⑤口口⑥ |③-④-|
③口口④ |⑤-⑥-|
①口口② |⑦-⑧-|
43
口②②口 |①---|
口④口⑥ |②---|
口①①口 |③-④-|
③口⑤口 |⑤-⑥-|
44
口②①口 |--①-|
口④③口 |②-③-|
口口⑤口 |④-⑤-|
口口口口 |----|
45
②口口② |①---|
③④⑤⑥ |②---|
①口口① |③-④-|
口口口口 |⑤-⑥-|
46
口口口口 |--①-|
口口口口 |②-③-|
口口口口 |④---|
④③②① |----|
47
口②②口 |①---|
⑥口④口 |②---|
口①①口 |③-④-|
口⑤口③ |⑤-⑥-|
48
口①②口 |--①-|
口③④口 |②-③-|
口⑤口口 |④-⑤-|
口口口口 |----|
49
②口口② |①---|
③④⑤⑥ |②---|
①口口① |③-④-|
口口口口 |⑤-⑥-|
50
口④④口 |--①-|
③⑤⑤口 |②-③-|
口⑥⑥② |④-⑤-|
①口口口 |⑥---|
51
口口口口 |①---|
③口口② |②---|
口口④口 |③-④-|
⑤口口① |⑤---|
52
口②③口 |①---|
口④口口 |②---|
口①⑤口 |③-④-|
口口口口 |⑤---|
53
③口口② |①---|
口口④口 |②---|
⑤口口① |③-④-|
口口口口 |⑤---|
54
口口口口 |①---|
口②④③ |②---|
⑥⑤口口 |③-④-|
口①口口 |⑤-⑥-|
55
口口②口 |①---|
③口口口 |②---|
口口④口 |③-④-|
⑤口①① |⑤---|
56
口②口③ |①---|
口④口口 |②---|
口口口⑤ |③-④-|
口①口口 |⑤---|
57
③口②口 |①---|
口口④口 |②---|
⑤口口口 |③-④-|
口口①① |⑤---|
58
口②口③ |①---|
口④口口 |②---|
口口口⑤ |③-④-|
①①口口 |⑤---|
59
口④②口 |①---|
口口口口 |②---|
口口口口 |③---|
③③①① |④---|
60
②口口① |①-②-|
④口口③ |③-④-|
口⑥⑤口 |⑤-⑥-|
口⑧⑦口 |⑦-⑧-|
61
口④④口 |--①-|
口⑤⑤③ |②-③-|
②⑥⑥口 |④-⑤-|
口口口① |⑥---|
62
口口口③ |①-②-|
②⑥口口 |③---|
口口⑤① |④-⑤-|
④口口口 |⑥---|
63
④口口口 |①-②-|
口口⑤③ |③---|
⑥②口口 |④-⑤-|
口口①口 |⑥---|
64
口口③口 |①-②-|
④②口口 |③---|
口口⑤① |④-⑤-|
⑥口口口 |⑥---|
65
口口口口 |①-②-|
④⑤口③ |③---|
口②⑥⑦ |④-⑤-|
口口①口 |⑥-⑦-|
66
口③口口 |①-②-|
口口②⑥ |③---|
①⑤口口 |④-⑤-|
口口口④ |⑥---|
67
口口口口 |①-②-|
①口④口 |③---|
口⑤②口 |④-⑤-|
③口口⑥ |⑥---|
68
口口口⑥ |①-②-|
⑤③口口 |③---|
口口④② |④-⑤-|
口①口口 |⑥---|
69
口口口口 |①-②-|
口③⑤④ |③---|
⑦⑥口② |④-⑤-|
①口口口 |⑥-⑦-|
70
口②②⑥ |①---|
口④口口 |②---|
口口⑤口 |③-④-|
③①①口 |⑤-⑥-|
71
口③口口 |--①-|
④口②口 |②-③-|
口⑤口① |④-⑤-|
口口口口 |----|
72
②口口② |①---|
⑥口口口 |②---|
①⑤④① |③-④-|
口口口③ |⑤-⑥-|
73
口口口① |--①-|
口③②口 |②-③-|
④口口口 |④---|
口口口口 |----|
74
⑥②②口 |①---|
口口④口 |②---|
口⑤口口 |③-④-|
口①①③ |⑤-⑥-|
75
口口③口 |--①-|
口②口④ |②-③-|
①口⑤口 |④-⑤-|
口口口口 |----|
76
②口口② |①---|
⑥口口口 |②---|
①⑤④① |③-④-|
口口口③ |⑤-⑥-|
77
③④④口 |--①-|
口⑤⑤② |②-③-|
①⑥⑥口 |④-⑤-|
口口口口 |⑥---|

accuracy: 100%
最終更新:2024年06月12日 20:57