アットウィキロゴ
It's my Miracle
Another Infinity feat. Mayumi Morinaga

EXTREME

Level: 9.1
BPM: 175
Notes: 795

1
口口口口 |----|
口口口口 |----|
口口口口 |----|
口口口口 |----|
2
口口口口 |----|
口口口口 |----|
口口口口 |----|
口口口口 |----|
3
①②⑤④ |①--②|
口口口口 |--③-|
口⑥③口 |④--⑤|
口口口口 |--⑥-|
4
口口口口 |①--②|
①②⑤④ |--③-|
口口口口 |④--⑤|
口⑥③口 |--⑥-|
5
①②⑤④ |①--②|
口口口口 |--③-|
口⑥③口 |④--⑤|
口口口口 |--⑥-|
6
口口口口 |①--②|
①②口口 |--③-|
口口口口
口口③口

口口口口
⑥口⑤④
口口口口 |④--⑤|
口⑦口口 |-⑥⑦-|
7
①②⑥⑤ |①--②|
口口口口 |③-④-|
⑤⑧④① |⑤--⑥|
⑦口口③ |⑦-⑧-|
8
口口口口 |①--②|
①②⑥⑤ |③-④-|
⑤口口① |⑤--⑥|
⑦⑧④③ |⑦-⑧-|
9
②口口① |①-②-|
口⑥⑦口 |③-④-|
口④③口 |⑤-⑥-|
口⑧⑤口 |⑦-⑧-|
10
②⑩⑨① |①②③④|
④⑫⑪③ |⑤⑥⑦⑧|
⑥口⑬⑤ |⑨⑩⑪⑫|
⑧口口⑦ |⑬---|
11
④口口⑥ |①---|
②④⑥② |②---|
③③⑤⑤ |③-④-|
口①①口 |⑤-⑥-|
12
口④④口 |--①-|
②口口③ |②-③-|
⑤口口⑤ |④-⑤-|
②①①③ |----|
13
⑥口口⑥ |①---|
②④⑤② |②---|
⑤③③④ |③-④-|
口①①口 |⑤-⑥-|
14
口②①口 |--①-|
②口口① |②-③-|
口③④口 |④---|
③口口④ |----|
15
④口口⑥ |①---|
②④⑥② |②---|
③③⑤⑤ |③-④-|
口①①口 |⑤-⑥-|
16
口④④口 |--①-|
②口口③ |②-③-|
⑤口口⑤ |④-⑤-|
②①①③ |----|
17
⑥口口⑥ |①---|
②④⑤② |②---|
⑤③③④ |③-④-|
口①①口 |⑤-⑥-|
18
口⑤④口 |--①-|
①④⑤② |②-③-|
⑥③③⑥ |④-⑤-|
⑥①②⑥ |⑥---|
19
⑤口④③ |①-②-|
①⑥⑧⑦ |③-④-|
口口口口 |⑤-⑥-|
口②口口 |⑦-⑧-|
20
口①口口 |①-②-|
⑤口口口 |③-④-|
②口④③ |⑤-⑥-|
⑥口⑦⑧ |⑦-⑧-|
21
⑤口④③ |①-②-|
口①口口 |③-④-|
②口⑧⑦ |⑤-⑥-|
口⑥口口 |⑦-⑧-|
22
口口⑧⑨ |①-②-|
口①④③ |③-④⑤|
口⑤口⑦ |⑥-⑦-|
②口⑥口 |⑧-⑨-|
23
⑤口口口 |①-②-|
①口④③ |③-④-|
⑥口口口 |⑤-⑥-|
口②⑧⑦ |⑦-⑧-|
24
口口④③ |①-②-|
⑤口口口 |③-④-|
口①⑦⑧ |⑤-⑥-|
②⑥口口 |⑦-⑧-|
25
①口④③ |①-②-|
口⑤⑧⑦ |③-④-|
口②口口 |⑤-⑥-|
⑥口口口 |⑦-⑧-|
26
①⑧口口 |①-②-|
口⑤⑦口 |③-④-|
口⑥④③ |⑤-⑥⑦|
口②口口 |⑧---|
27
④口口⑥ |①---|
②④⑥② |②---|
③③⑤⑤ |③-④-|
口①①口 |⑤-⑥-|
28
口④④口 |--①-|
②口口③ |②-③-|
⑤口口⑤ |④-⑤-|
②①①③ |----|
29
⑥口口⑥ |①---|
②④⑤② |②---|
⑤③③④ |③-④-|
口①①口 |⑤-⑥-|
30
口②①口 |--①-|
②口口① |②-③-|
口③④口 |④---|
③口口④ |----|
31
④口口⑥ |①---|
②④⑥② |②---|
③③⑤⑤ |③-④-|
口①①口 |⑤-⑥-|
32
口④④口 |--①-|
②口口③ |②-③-|
⑤口口⑤ |④-⑤-|
②①①③ |----|
33
⑥口口⑥ |①---|
②④⑤② |②---|
⑤③③④ |③-④-|
口①①口 |⑤-⑥-|
34
口⑤④口 |--①-|
①④⑤② |②-③-|
⑥③③⑥ |④-⑤-|
⑥①②⑥ |⑥---|
35
口⑤④口 |①--②|
①④⑤口 |--③-|
⑥②口⑥ |④-⑤-|
⑥口③⑥ |⑥---|
36
口⑤④口 |①--②|
口④⑤① |--③-|
⑥口②⑥ |④-⑤-|
⑥③口⑥ |⑥---|
37
口⑤④口 |①--②|
①④⑤口 |--③-|
⑥②口⑥ |④-⑤-|
⑥口③⑥ |⑥---|
38
口口口口 |①--②|
④口口① |--③-|
口⑤②⑥ |④--⑤|
口③⑦口 |-⑥⑦-|
39
⑨⑧⑦⑥ |①--②|
口⑤⑤① |③-④-|
③口②口 |⑤--⑥⑦⑧|
①口口④ |⑨---|
40
⑥⑦⑧⑨ |①--②|
口⑤⑤① |③-④-|
口③②口 |⑤--⑥⑦⑧|
口①口④ |⑨---|
41
口口口口 |①-②-|
②⑥⑦① |③-④-|
口④③口 |⑤-⑥-|
口⑧⑤口 |⑦-⑧-|
42
②⑩⑨① |①②③④|
④⑫⑪③ |⑤⑥⑦⑧|
⑥口⑬⑤ |⑨⑩⑪⑫|
⑧口口⑦ |⑬---|
43
④口口⑥ |①---|
②④⑥② |②---|
③③⑤⑤ |③-④-|
口①①口 |⑤-⑥-|
44
口④④口 |--①-|
②口口③ |②-③-|
⑤口口⑤ |④-⑤-|
②①①③ |----|
45
⑥口口口 |①---|
②④⑤口 |②---|
口口③口 |③-④-|
口口①口 |⑤-⑥-|
46
口口口口 |--①-|
②口口① |②-③-|
口口口口 |④---|
③口口④ |----|
47
④口口⑥ |①---|
②④⑥② |②---|
③③⑤⑤ |③-④-|
口①①口 |⑤-⑥-|
48
口④④口 |--①-|
②口口③ |②-③-|
⑤口口⑤ |④-⑤-|
②①①③ |----|
49
⑥口口口 |①---|
②④⑤口 |②---|
口口③口 |③-④-|
口口①口 |⑤-⑥-|
50
口⑤④口 |--①-|
①④⑤② |②-③-|
⑥③③⑥ |④-⑤-|
⑥①②⑥ |⑥---|
51
口⑦⑧② |①-②-|
⑪⑤⑥⑩ |③④-⑤|
口③④口 |⑥-⑦⑧|
⑨①口口 |-⑨⑩⑪|
52
⑥口口⑤ |①-②③|
口⑧口⑪ |-④⑤⑥|
④口③⑦ |⑦-⑧⑨|
⑩②⑨① |-⑩⑪-|
53
⑦③④⑧ |①-②-|
口⑪⑩口 |③④-⑤|
⑤口②⑥ |⑥-⑦⑧|
⑨①口口 |-⑨⑩⑪|
54
⑧④口⑦ |①-②③|
②⑩⑨③ |-④⑤⑥|
⑧⑥⑤⑦ |⑦-⑧-|
口⑩⑨① |⑨-⑩-|
55
⑤口口⑥ |①-②-|
口⑪⑩② |③④-⑤|
⑦③④⑧ |⑥-⑦⑧|
①⑨口① |-⑨⑩⑪|
56
⑩④⑦⑪ |①-②③|
口口口③ |-④⑤⑥|
⑧⑥⑤⑨ |⑦-⑧⑨|
②口①口 |-⑩⑪-|
57
⑦③④⑧ |①-②-|
口⑪⑩② |③④-⑤|
口⑤⑥口 |⑥-⑦⑧|
⑨①①口 |-⑨⑩⑪|
58
⑦③④⑧ |①-②-|
口⑪⑩② |③④-⑤|
口⑤⑥口 |⑥-⑦⑧|
⑨①①口 |-⑨⑩⑪|
59
⑤⑨④⑩ |①-②-|
⑦口口② |③④-⑤|
③⑥⑥⑧ |⑥-⑦-|
口①①口 |⑧⑨-⑩|
60
⑨口口⑩ |①-②-|
口⑦⑧口 |③-④-|
⑪⑤⑥⑫ |⑤⑥⑦⑧|
①②③④ |⑨⑩⑪⑫|
61
口⑤④口 |--①-|
①④⑤② |②-③-|
⑥③③⑥ |④-⑤-|
⑥①②⑥ |⑥---|
62
⑦口④⑥ |①-②-|
⑤⑪⑩② |③④-⑤|
⑨③口口 |⑥-⑦⑧|
口①⑧口 |-⑨⑩⑪|
63
口⑩⑪⑦ |①-②③|
⑥口口③ |-④⑤⑥|
⑧④⑤⑨ |⑦-⑧⑨|
口②口① |-⑩⑪-|
64
口⑦⑩⑥ |①-②-|
⑤⑪④② |③④-⑤|
⑨③口⑧ |⑥-⑦⑧|
①①口口 |-⑨⑩⑪|
65
口口口口 |①-②③|
④口口⑤ |-④⑤-|
口口口口
口②③①

⑥口口⑦
口口口口
⑧⑥⑦⑨ |⑥-⑦-|
⑧口口⑨ |⑧-⑨-|
66
⑥④⑪⑨ |①-②-|
②⑧③⑦ |③④-⑤|
口⑩⑤口 |⑥-⑦⑧|
口①①口 |-⑨⑩⑪|
67
⑪口口口 |①-②③|
③⑨⑥⑩ |-④⑤⑥|
⑤口⑧④ |⑦-⑧⑨|
①⑦②口 |-⑩⑪-|
68
口④口口 |①-②-|
②口⑤口 |③④-⑤|
口口口③
口口①①

口口⑪⑦
口口口口
⑧⑩口口 |⑥-⑦⑧|
口⑥⑨口 |-⑨⑩⑪|
69
③⑤口口 |①-②③|
①⑦⑥④ |-④⑤-|
⑦口②⑥ |⑥-⑦-|
⑨⑨⑧⑧ |⑧-⑨-|
70
①②②⑥ |①---|
②口④口 |②---|
③①①③ |③-④-|
⑤口⑤口 |⑤-⑥-|
71
①口③口 |①-②-|
③口⑤⑤ |③-④-|
⑤口②口 |⑤-⑥-|
⑦④⑥⑥ |⑦---|
72
①②②⑥ |①---|
②口⑤口 |②---|
③①①④ |③-④-|
⑤口③口 |⑤-⑥-|
73
①口②口 |①-②-|
③③⑦⑤ |③-④-|
⑤口口口 |⑤---|
⑥口④⑤ |⑥-⑦-|
74
①②②④ |①---|
②口⑥口 |②---|
③①①⑤ |③-④-|
⑤口③口 |⑤-⑥-|
75
①口⑤⑤ |①-②-|
③④口③ |③-④-|
⑤口②口 |⑤-⑥-|
⑦口⑥⑥ |⑦---|
76
①②口口 |①-②-|
③④③③ |③-④-|
口口①①
口口口口

口口⑥口
口口口口
⑤⑥口⑧ |⑤-⑥-|
⑦⑧⑦⑤ |⑦-⑧-|
77
②⑩⑨① |①②③④|
④⑥⑤③ |⑤⑥⑦⑧|
⑪⑧⑦⑪ |⑨-⑩-|
⑪⑪⑪⑪ |⑪---|

accuracy: 100%
最終更新:2024年06月12日 20:58