アットウィキロゴ
I LOVE COSMOS CHERRY BLOSSOMS
(ASAKI & wac)

BASIC

Level: 3
BPM: 197
Notes: 219

1
口口口口 |----|
口口口口 |----|
口口口口 |----|
口口口口 |----|
2
口口口口 |①---|
口口口口 |----|
口①口口 |----|
口口口口 |----|
3
口口口口 |①---|
口①口口 |----|
口口口口 |----|
口口口口 |----|
4
口口口口 |①---|
口口口口 |----|
口口①口 |----|
口口口口 |----|
5
口口口口 |①---|
口口①口 |----|
口口口口 |----|
口口口口 |----|
6
口口口口 |①---|
口口口口 |----|
口①口口 |----|
口口口口 |----|
7
口口口口 |①---|
口口口口 |----|
口口①口 |----|
口口口口 |----|
8
口口口口 |①---|
口①口口 |----|
口口口口 |----|
口口口口 |----|
9
口口口口 |①---|
口口①口 |----|
口口口口 |----|
口口口口 |----|
10
口口口口 |①---|
口口口口 |----|
口①口口 |----|
口口口口 |----|
11
口口口口 |①---|
口口口口 |----|
口口①口 |----|
口口口口 |----|
12
①口口口 |①---|
口口口口 |----|
口口口口 |----|
口口口口 |----|
13
口口口① |①---|
口口口口 |----|
口口口口 |----|
口口口口 |----|
14
口口口口 |①---|
口口口口 |----|
口口口口 |----|
①口口口 |----|
15
口口口口 |①---|
口口口口 |----|
口口口口 |----|
口口口① |----|
16
口口口口 |①---|
①②口口 |----|
口口口口 |②---|
口口口口 |----|
17
口口口口 |①---|
口口口口 |----|
①②口口 |②---|
口口口口 |----|
18
口口口口 |①---|
口口②① |----|
口口口口 |②---|
口口口口 |----|
19
口口口口 |①---|
口口口口 |----|
口口②① |②---|
口口口口 |----|
20
口①②口 |①---|
口口口口 |----|
口口口口 |②---|
口口口口 |----|
21
口口口口 |①---|
口①②口 |----|
口口口口 |②---|
口口口口 |----|
22
口口口口 |①---|
口口口口 |----|
口①②口 |②---|
口口口口 |----|
23
口口口口 |①---|
口口口口 |----|
口口口口 |----|
口①口口 |----|
24
口口口口 |①---|
口口①① |----|
口口口口 |----|
口口口口 |----|
25
口口口口 |①---|
口口口口 |----|
①①口口 |----|
口口口口 |----|
26
口口口口 |①---|
口口口口 |----|
口口口口 |----|
口口①① |----|
27
口口口口 |①---|
口①①口 |----|
口口口口 |----|
口口口口 |----|
28
口口口口 |①---|
口口口口 |----|
口①①口 |----|
口①①口 |----|
29
口口口口 |①---|
口①①口 |----|
口①①口 |----|
口口口口 |----|
30
②②①① |①---|
口口口口 |----|
口口口口 |②---|
口口口口 |----|
31
②口口② |①---|
②口口② |----|
口①①口 |②---|
口口口口 |----|
32
口口口口 |①---|
口口口口 |----|
①①口口 |----|
口口口口 |----|
33
口口口口 |①---|
口口①① |----|
口口口口 |----|
口口口口 |----|
34
①①口口 |①---|
口口口口 |----|
口口口口 |----|
口口口口 |----|
35
口口口口 |①---|
口口口口 |----|
口①①口 |----|
口口口口 |----|
36
口①①口 |①---|
口①①口 |----|
口口口口 |----|
口口口口 |----|
37
口口口口 |①---|
口①①口 |----|
口①①口 |----|
口口口口 |----|
38
④③②① |①---|
口口口口 |②---|
口口口口 |③---|
口口口口 |④---|
39
口口口口 |①---|
口口口① |----|
口口口口 |----|
口口口口 |----|
40
口口口口 |①---|
口口②口 |----|
口①①口 |②---|
口口口口 |----|
41
口口口口 |①---|
②①口口 |----|
口口口口 |②---|
口口口口 |----|
42
口口口口 |①---|
口口口口 |----|
①①①① |----|
口口口口 |----|
43
口口口口 |----|
口口口口 |----|
口口口口 |----|
口口口口 |----|
44
口口口口 |①---|
口②口口 |----|
口①①口 |②---|
口口口口 |----|
45
口口口口 |①---|
口口①② |----|
口口口口 |②---|
口口口口 |----|
46
口口口口 |①---|
口口口口 |----|
①①①① |----|
口口口口 |----|
47
口口口口 |----|
口口口口 |----|
口口口口 |----|
口口口口 |----|
48
口口口口 |①---|
口口②口 |----|
口①①口 |②---|
口口口口 |----|
49
口口口口 |①---|
口②口口 |----|
口①①口 |②---|
口口口口 |----|
50
口口口口 |①---|
口口②口 |----|
口①①口 |②---|
口口口口 |----|
51
口口口口 |①---|
口口口口 |----|
口①①口 |----|
口口口口 |----|
52
口口口口 |①---|
①口口① |----|
①口口① |----|
口口口口 |----|
53
口口口口 |①---|
口口口口 |----|
口②口口 |②---|
口口①口 |----|
54
口口口口 |①---|
口①①口 |----|
口口口口 |----|
口口口口 |----|
55
①①①① |①---|
口口口口 |----|
口口口口 |----|
口口口口 |----|
56
口口口口 |①---|
口①①口 |----|
口①①口 |----|
口口口口 |----|
57
口口口口 |①---|
口口口口 |②---|
①②③口 |③---|
口口口口 |----|
58
口口口口 |①---|
口③②① |②---|
口口口口 |③---|
口口口口 |----|
59
①②③口 |①---|
口口口口 |②---|
口口口口 |③---|
口口口口 |----|
60
②口口② |①---|
口口口口 |----|
①口口① |②---|
口口口口 |----|
61
口口口口 |①---|
口口口口 |②---|
口口口口 |③---|
口③②① |----|
62
口口口口 |①---|
口口口口 |②---|
①②③口 |③---|
口口口口 |----|
63
口口口口 |①---|
口口口口 |----|
②口口② |②---|
①口口① |----|
64
②口口② |①---|
①口口① |----|
口口口口 |②---|
口口口口 |----|
65
口口①口 |①---|
口口②口 |②---|
口口③口 |③---|
口口口口 |----|
66
口口口口 |①---|
口③口口 |②---|
口②口口 |③---|
口①口口 |----|
67
口口口口 |①---|
口④③口 |②---|
口②①口 |③---|
口口口口 |④---|
68
口口①口 |①---|
口口口口 |----|
口口口口 |----|
口口口口 |----|
69
③口口口 |①---|
②口口口 |②---|
①口口口 |③---|
口口口口 |----|
70
口口口③ |①---|
口口口② |②---|
口口口① |③---|
口口口口 |----|
71
口口口口 |①---|
口口口口 |----|
口②②口 |②---|
口①①口 |----|
72
口口口口 |①---|
口①①口 |----|
口口口② |②---|
口口口口 |----|
73
①①①① |①---|
口口口口 |----|
口口口口 |----|
口口口口 |----|
74
口口口口 |----|
口口口口 |----|
口口口口 |----|
口口口口 |----|
75
①①①① |①---|
口口口口 |----|
口口口口 |----|
口口口口 |----|
76
口口口口 |①---|
口口口口 |----|
口口①口 |----|
口口口口 |----|
77
①①①① |①---|
口口口口 |----|
口口口口 |----|
口口口口 |----|
78
口口口口 |①---|
口口口口 |----|
口①口口 |----|
口口口口 |----|
79
①①①① |①---|
口口口口 |----|
口口口口 |----|
口口口口 |----|
80
口口口口 |①---|
口口口口 |----|
①口口口 |----|
口口口口 |----|
81
口①①口 |①---|
口①①口 |----|
口口口口 |----|
口口口口 |----|
82
口口口口 |----|
②口口② |----|
①口口① |①---|
口口口口 |②---|
83
①口口① |①---|
口口口口 |----|
口口口口 |----|
口口口口 |----|
84
口口口口 |①---|
口①①口 |----|
口①①口 |----|
口口口口 |----|
85
①②③口 |①---|
口口口口 |--②-|
口口口口 |----|
口口口口 |③---|
86
口口口① |--①-|
②口口③ |----|
口口口口 |②---|
口口口口 |③---|
87
②②②② |①---|
口①①口 |----|
口①①口 |----|
口口口口 |--②-|

accuracy: 100%
最終更新:2024年06月12日 11:37