アットウィキロゴ
I LOVE COSMOS CHERRY BLOSSOMS
(ASAKI & wac)

ADVANCED

Level: 6
BPM: 197
Notes: 519

1
口口口口 |----|
口口口口 |----|
口口口口 |----|
口口口口 |----|
2
①口口口 |①---|
口口口② |--②-|
口①口口 |----|
口③口口 |③---|
3
口口口① |①---|
②口口口 |--②-|
口口①口 |----|
口口③口 |③---|
4
口①口口 |①---|
口口口② |--②-|
①口口口 |----|
口③口口 |③---|
5
②口口① |①---|
口口口口 |----|
②口口① |②---|
口口口口 |----|
6
口口①口 |①---|
口口口① |--②-|
口②口口 |----|
口口③口 |③---|
7
②口口② |①---|
②①①② |----|
口口口口 |②---|
口口口口 |----|
8
口①①口 |①---|
口②②口 |--②-|
口③③口 |----|
口口口口 |③---|
9
口口口口 |--①-|
③口口口 |----|
口口口② |②---|
口①①口 |③---|
10
口①①口 |①---|
口②②口 |--②-|
口③③口 |----|
口口口口 |③---|
11
口口口口 |--①-|
口口口③ |----|
②口口口 |②---|
口①①口 |③---|
12
口①①口 |①---|
口②②口 |--②-|
口③③口 |----|
口口口口 |③---|
13
口口口口 |--①-|
③口口口 |----|
口口口② |②---|
口①①口 |③---|
14
口①①口 |①---|
口②②口 |--②-|
口③③口 |----|
口口口口 |③---|
15
口口口口 |①---|
①口口① |--②-|
②口口② |----|
③口口③ |③---|
16
口②③① |①---|
口④⑤口 |②-③-|
口口口口 |--④-|
口口口口 |⑤---|
17
口口口口 |①-②-|
口口口口 |--③-|
口①②口 |④---|
⑤③④口 |⑤---|
18
①③②口 |①---|
口⑤④口 |②-③-|
口口口口 |--④-|
口口口口 |⑤---|
19
口口口口 |①-②-|
口口口口 |--③-|
口②①口 |④---|
口④③⑤ |⑤---|
20
口②③① |①---|
口④⑤口 |②-③-|
口口口口 |--④-|
口口口口 |⑤---|
21
口口口口 |①-②-|
口口口口 |--③-|
口①②口 |④---|
⑤③④口 |⑤---|
22
①③②口 |①---|
口⑤④口 |②-③-|
口口口口 |--④-|
口口口口 |⑤---|
23
口口口口 |①---|
口口口口 |②-③-|
口②③① |--④-|
口④⑤口 |⑤---|
24
口口口口 |①---|
①口口① |----|
②③④口 |②--③|
口口口口 |--④-|
25
口③②① |①--②|
口⑥⑤④ |--③-|
口口口口 |④--⑤|
口口口口 |--⑥-|
26
口口口口 |①--②|
口口口口 |--③-|
①②③口 |④--⑤|
口⑥⑤④ |--⑥-|
27
②口口③ |①---|
口①①口 |--②-|
②口口③ |③---|
口口口口 |----|
28
口口口口 |①---|
③口口② |--②-|
口①①口 |③---|
③①①② |----|
29
口①①② |①---|
口①①口 |--②-|
口口口②
口口口口

③口口口
口⑤口口
③口④口 |③---|
口口口口 |④-⑤-|
30
口②①口 |①---|
②口口① |②---|
④口口③ |③---|
口④③口 |④---|
31
④口口④ |①--②|
口③口口 |--③-|
口口②口 |④---|
口口口① |----|
32
口口口口 |①---|
②③④口 |----|
①口口① |②--③|
口口口口 |--④-|
33
口口口口 |①--②|
口口口口 |--③-|
口⑥⑤④ |④--⑤|
口③②① |--⑥-|
34
口⑥⑤④ |①--②|
①②③口 |--③-|
口口口口 |④--⑤|
口口口口 |--⑥-|
35
口口口口 |①---|
②口口③ |--②-|
口①①口 |③---|
②口口③ |----|
36
口口口口 |①---|
②口口② |--②-|
口①①口 |----|
②①①② |----|
37
②①①② |①---|
口①①口 |--②-|
②口口②
口口口口

口口口口
口口④口
口③口口 |----|
口口口口 |③-④-|
38
口①②口 |①---|
①口口② |②---|
③口口④ |③---|
口③④口 |④---|
39
口口口口 |①---|
口①①口 |----|
口①①口 |----|
口口口口 |----|
40
口⑤口口 |①---|
口口④口 |----|
①③口① |②-③-|
口口②口 |④-⑤-|
41
口口①① |----|
②②口口 |①---|
口口③③ |②---|
口口口口 |③---|
42
口口口口 |①---|
口口②口 |--②-|
口③口口 |③---|
①①口口 |----|
43
口口口口 |----|
口口口口 |----|
口口口口 |----|
口口口口 |----|
44
口口⑤口 |①---|
口④口口 |----|
①口③① |②-③-|
口②口口 |④-⑤-|
45
①①口口 |----|
口口②② |①---|
③③口口 |②---|
口口口口 |③---|
46
口②③口 |①---|
口口口口 |--②-|
口口口口 |③---|
口口①① |----|
47
口口口口 |----|
口口口口 |----|
口口口口 |----|
口口口口 |----|
48
口口①① |①---|
口口②② |--②-|
口口③③ |----|
口口口口 |③---|
49
口口口口 |①---|
②②口口 |--②-|
①①口口 |----|
③③口口 |③---|
50
①口口① |①---|
②口口② |--②-|
③口口③ |----|
口口口口 |③---|
51
口口口口 |①---|
口口③口 |----|
口②口口 |②---|
口①①口 |③---|
52
口①②口 |①---|
口口口口 |--②-|
①口口② |----|
口口口口 |----|
53
口口口③ |----|
②口③口 |①---|
口②口① |②---|
口口①口 |③---|
54
口①①口 |①---|
口②③口 |----|
②口口③ |----|
口口口口 |②-③-|
55
口口口口 |--①-|
②③④口 |----|
口口口口 |②--③|
口①①口 |--④-|
56
口口口口 |①---|
口口口口 |----|
口①①口 |----|
口口口口 |----|
57
口④①口 |①--②|
④口口① |--③-|
口②⑤口 |④--⑤|
⑥口口③ |--⑥-|
58
④口口① |①--②|
口④①口 |--③-|
②口口⑤ |④--⑤|
口⑥③口 |--⑥-|
59
口⑥③口 |①--②|
②口口⑤ |--③-|
口④①口 |④--⑤|
④口口① |--⑥-|
60
②口口③ |①---|
口口口口 |--②-|
②口口③ |③---|
口①①口 |----|
61
口⑥③口 |①--②|
④口口① |--③-|
口②⑤口 |④--⑤|
④口口① |--⑥-|
62
④口口① |①--②|
口②⑤口 |--③-|
④口口① |④--⑤|
口⑥③口 |--⑥-|
63
口口口③ |①---|
口口口① |--②-|
④口③① |③---|
②口口口 |--④-|
64
口口③口 |①---|
②口①③ |--②-|
口口口口 |③---|
口口口① |----|
65
①①④④ |①--②|
口⑤②口 |--③-|
③口口⑥ |④--⑤|
口口口口 |--⑥-|
66
口口口口 |①--②|
③口口口 |--③-|
口口②口 |④---|
①①④④ |----|
67
口⑤②口 |①--②|
口口口口 |--③-|
①③⑥④ |④--⑤|
①口口④ |--⑥-|
68
①口口① |①---|
①口口① |----|
口口口口 |----|
口口口口 |----|
69
口口口口 |①--②|
④口口③ |--③-|
口⑤②口 |④--⑤|
口①⑥口 |--⑥-|
70
②④④③ |①---|
口①①口 |--②-|
②口口③ |③---|
口口口口 |④---|
71
口口口口 |①--②|
②⑥③⑤ |--③-|
⑥②⑤③ |④--⑤|
④④①① |--⑥-|
72
口①①口 |①---|
口口口口 |----|
口口口口 |②---|
②②②② |----|
73
①①①① |①---|
口口③② |②-③-|
口口⑤④ |--④-|
口口口口 |⑤---|
74
口口口口 |①-②-|
①②口口 |--③-|
③④口口 |④---|
口⑤⑤口 |⑤---|
75
口①①口 |①---|
②③口口 |②-③-|
④⑤口口 |--④-|
口口口口 |⑤---|
76
口口口口 |①-②-|
口口②① |--③-|
口口④③ |④---|
口⑤⑤口 |⑤---|
77
口①①② |①---|
口口③④ |②-③-|
口口⑤口 |--④-|
口口口口 |⑤---|
78
①口口口 |①-②-|
③②口口 |--③-|
口④口口 |④---|
口⑤⑤口 |⑤---|
79
口①①② |①---|
口口口④ |②-③-|
口口③口 |--④-|
口口⑤口 |⑤---|
80
①口口口 |①-②-|
③⑤⑤口 |--③-|
口②口口 |④---|
口④口口 |⑤---|
81
口①①口 |①---|
⑤口口③ |②-③-|
口口口口 |--④-|
②口口④ |⑤---|
82
④口②④ |①-②-|
⑤口口⑤ |--③-|
口①③口 |④---|
口口口口 |⑤---|
83
口口口口 |①---|
口⑤③口 |②-③-|
①口口① |--④-|
②口口④ |⑤---|
84
口口②② |①-②-|
⑤口口⑤ |--③-|
④①口④ |④---|
口③③口 |⑤---|
85
②⑤①① |①-②-|
⑧口⑦⑦ |③-④-|
⑥③④④ |⑤-⑥-|
口口口口 |⑦-⑧-|
86
口⑥⑥口 |①-②-|
口③口口 |③-④-|
口⑤⑤口 |⑤---|
④①②② |⑥---|
87
②⑥⑥① |①-②-|
⑥②①⑥ |③-④-|
④⑤⑤③ |--⑤-|
口④③口 |--⑥-|

accuracy: 100%
最終更新:2024年06月12日 11:37