アットウィキロゴ
I LOVE COSMOS CHERRY BLOSSOMS
(ASAKI & wac)

EXTREME

Level: 10.4
BPM: 197
Notes: 1009

1
口口口口 |----|
口口口口 |----|
口口口口 |----|
口口口口 |----|
2
③口②口 |①---|
①①口口 |--②-|
①①口口 |----|
①①口口 |③---|
3
口口口③ |①---|
口口①① |--②-|
口口①① |----|
口②①① |③---|
4
①①口口 |①---|
①①②口 |--②-|
①①口口 |----|
③口口口 |③---|
5
④⑤②① |①-②-③-|
⑥③口口 |④-⑤-⑥-|
⑦⑪口口 |⑦-⑧-⑨-|
⑫⑧⑩⑨ |⑩-⑪-⑫-|
6
②口①① |①---|
口口①① |--②-|
口口①① |----|
口口口③ |③---|
7
②口口② |①---|
②①①② |----|
②①①② |②---|
口①①口 |----|
8
口①①口 |①-②-|
口口②口 |③-④-|
口③口口
口④④口

⑦⑧口口
⑦口口⑥
口口⑤口 |⑤-⑥-|
口口口口 |⑦-⑧-|
9
⑥口口口 |①-②-|
⑥口①口 |③-④-|
⑤④口② |⑤---|
⑤口③② |⑥---|
10
口③口① |①-②-|
口口②① |③-④-|
④⑤⑧⑦ |⑤-⑥-|
④口⑥⑦ |⑦-⑧-|
11
口②②口 |①-②-|
⑤①③⑥ |③-④-|
⑤④口⑥ |⑤---|
口口口口 |⑥---|
12
口①①① |①-②-|
口②口口 |③-④-|
口③口口
④④④口

⑦⑧口口
⑦口⑥口
⑦口⑤口 |⑤-⑥-|
口口口口 |⑦-⑧-|
13
⑥口①口 |①-②-|
口口⑥② |③-④-|
口口⑤② |⑤---|
⑤④③② |⑥---|
14
口①①① |①-②-|
口②⑥⑦ |③-④-|
口③⑤口 |⑤-⑥-|
④④④⑧ |⑦-⑧-|
15
②②①④ |①-②-|
⑤⑤⑦⑧ |③-④-|
③③④① |⑤-⑥-|
⑥⑥⑦⑧ |⑦-⑧-|
16
①⑤②⑥ |①②③④|
⑨⑨⑩口 |⑤⑥⑦⑧|
⑦③⑧④ |⑨-⑩-|
⑫⑬⑭⑪ |⑪⑫⑬⑭|
17
③④⑤⑥ |①-②-|
⑧⑫⑪⑦ |③④⑤⑥|
口①口② |⑦⑧⑨⑩|
⑩⑭⑬⑨ |⑪⑫⑬⑭|
18
⑤③③⑥ |①-②-|
口⑦⑦口 |③-④-|
②④④① |⑤⑥--|
口⑧⑧口 |⑦-⑧-|
19
口⑦⑥口 |①②③-|
⑤⑨⑧① |④-⑤-|
口⑪⑩② |⑥⑦⑧⑨|
④⑬⑫③ |⑩⑪⑫⑬|
20
⑤口口① |①-②-|
口口口④ |③④⑤-|
③口口②
口口口口

口⑦⑥⑪
口⑨⑧口
口口⑩口 |⑥⑦⑧⑨|
口口口口 |⑩-⑪-|
21
⑦⑧口口 |①-②③|
①口⑨口 |④⑤⑥-|
⑪⑩口⑥ |⑦-⑧⑨|
⑤④③② |⑩-⑪-|
22
口口②① |①-②③|
⑨③口⑧ |④-⑤-|
口口④⑤ |⑥-⑦-|
⑦⑪⑩⑥ |⑧⑨⑩⑪|
23
②②②② |①---|
口口①口 |-②--|
②②②② |----|
口口口口 |----|
24
口②口② |①---|
①口④① |----|
③口口④ |②--③|
①③口① |--④-|
25
①④①④ |①--②|
口③口⑤ |--③-|
⑤②②口 |④--⑤|
⑥口⑥③ |--⑥-|
26
④⑤②口 |①--②|
①⑥口⑤ |--③-|
口③③② |④--⑤|
口①⑥④ |--⑥-|
27
③口口③ |①---|
①口口口 |--②-|
①②②口 |③---|
①①口口 |----|
28
口②口口 |①---|
②①③① |--②-|
口②口③ |③---|
②①口① |----|
29
①口①② |①---|
口口②口 |--②-|
①口①②
口口②口

口口口口
③口口⑤
口③⑤口 |③---|
④④口口 |④-⑤-|
30
①④①④ |①---|
③①④口 |②---|
③③口② |③---|
口口②② |④---|
31
口口①口 |①--②|
③①口① |--③-|
口口①②
口口口口

⑤⑥⑦⑧
口口口口
口口口口 |④---|
④④④④ |⑤⑥⑦⑧|
32
口口⑤口 |①---|
③①①口 |②---|
②口口口 |③--④|
④口口③ |--⑤-|
33
口口口口 |①--②|
口②口② |--③-|
口①①①
口口③口

④口口口
口口口口
⑥⑥口口 |④--⑤|
⑥⑥口⑤ |--⑥-|
34
口①口② |①--②|
③口①③ |--③-|
口口口①
口口口口

④口口口
口⑤口口
口口⑥⑥ |④--⑤|
口口⑥⑥ |--⑥-|
35
口①①③ |①---|
口口③② |--②-|
②③口口 |③---|
③口口口 |----|
36
②②②口 |①---|
②②②口 |--②-|
②口①① |----|
口口①① |----|
37
②②④口 |①---|
②口②④ |--②-|
②②①③ |----|
②①③① |③-④-|
38
③②④① |①---|
②口口④ |②---|
口④②口 |③---|
③②④① |④---|
39
口口口② |①-②③|
口③口口 |④⑤⑥-|
①口④①
口⑤口⑥

⑦口口口
口口⑧口
口⑨口⑫ |⑦⑧⑨⑩|
⑪口⑩口 |⑪-⑫-|
40
口①①② |①---|
①口口① |②---|
口口口口
口口口口

口口口口
口④口⑥
③口⑤口 |③-④-|
口③⑤口 |⑤-⑥-|
41
①③⑤⑦ |①-②-|
①口⑤口 |③-④-|
口④口⑧ |⑤-⑥-|
②④⑥⑧ |⑦-⑧-|
42
①⑥⑤口 |①②③-|
②③口⑧ |④-⑤-|
⑦⑤⑥口 |⑥-⑦-|
④⑨口口 |⑧-⑨-|
43
⑤⑥⑥⑤ |①-②-|
②⑥①⑥ |③-④-|
⑥⑥口③ |⑤---|
⑥⑥④口 |⑥---|
44
④口口⑤ |①---|
①④③口 |②---|
⑥口②⑤ |③-④-|
口⑥口③ |⑤-⑥-|
45
⑧④⑦⑪ |①-②③|
④⑫⑨⑦ |④-⑤⑥|
⑩⑥③口 |⑦-⑧⑨|
②⑩①⑤ |⑩-⑪⑫|
46
口⑤④⑧ |①-②-|
⑤口⑦④ |③-④-|
口⑥口① |⑤-⑥-|
②口①③ |⑦-⑧-|
47
⑥⑦口口 |①②③-|
⑪③⑧⑤ |④⑤⑥-|
④⑨②⑫ |--⑦⑧|
口①⑩口 |⑨⑩⑪⑫|
48
③④①① |①---|
口②口③ |②-③-|
③口②口 |----|
①①④③ |④---|
49
口口③① |①---|
③②①口 |②-③-|
④①②③ |----|
①③口④ |④---|
50
①口③口 |①---|
口③口① |②-③-|
④①②③ |----|
③②①④ |④---|
51
口①口① |①---|
①口①口 |②---|
④④口口 |③---|
③③②口 |④---|
52
①口④口 |①-②-|
①④①口 |③-④-|
口口口②
④口③口

口⑦口⑦
口口⑧口
口⑦⑥口 |⑤-⑥-|
口口口⑤ |⑦-⑧-|
53
口口口口 |①-②-|
口口口② |③-④-|
②口口①
口②③④

⑤口⑤口
⑦⑤⑦口
口口⑥⑧ |⑤-⑥-|
⑦口口口 |⑦-⑧-|
54
④口④① |①-②-|
口口口口 |③-④-|
②①口口
口③②③

口⑤口⑧
⑦⑥⑧⑤
口⑧⑥⑦ |⑤-⑥-|
⑧口口口 |⑦-⑧-|
55
④④⑤⑤ |--①-|
口口口口 |--②-|
①口口口 |③--④|
口③③② |--⑤-|
56
⑨⑧⑦⑥ |①---|
①①①① |----|
①①①① |②③④⑤|
②③④⑤ |⑥⑦⑧⑨|
57
⑥口口⑤ |①--②|
③①②① |--③-|
②⑤①③ |④--⑤|
④口④⑥ |--⑥-|
58
口④①口 |①--②|
④②⑤① |--③-|
③⑤②⑥ |④--⑤|
口③⑥口 |--⑥-|
59
口口口口 |①--②|
口②口③ |--③-|
口口②口
①③口①

口④④口
⑤口口口
⑤口口口 |④--⑤|
⑥口口⑥ |--⑥-|
60
①④④① |①---|
口④④② |②-③-|
口③③④ |④---|
口③③⑤ |⑤---|
61
②口③① |①--②|
①口口口 |--③-|
②口口③
①口口口

口④口口
口⑤口④
口口⑥口 |④--⑤|
⑥口⑤口 |--⑥-|
62
④口④口 |①--②|
①口②口 |③-④-|
口②口③
口①口①

口⑤口⑦
口⑥口⑤
⑤口⑧口 |⑤--⑥|
口⑧⑥口 |⑦-⑧-|
63
口口口口 |①-②-|
①口②④ |--③④|
③②口口
①口口①

口⑤口⑥
⑧口口口
口口⑦口 |⑤-⑥-|
口口⑥口 |--⑦⑧|
64
②口①⑦ |①-②-|
口③口⑥ |--③-|
③口口⑤ |④⑤⑥⑦|
口②⑧④ |⑧---|
65
③①③口 |①--②|
①口①口 |--③-|
③①③口
②口口口

口口口⑤
口④⑥④
口⑥口⑥ |④--⑤|
口④⑥④ |--⑥-|
66
③①④口 |①--②|
①④口④ |--③-|
④口④口 |④---|
②④口③ |----|
67
⑥④③① |①--②|
④口口⑤ |--③-|
口②口① |④--⑤|
④口①⑥ |--⑥-|
68
口口口口 |①---|
口①①口 |----|
①口口① |----|
口①①口 |----|
69
①口口③ |①--②|
②口口口 |--③-|
①②③口
口口①口

⑥④口口
口口⑤④
⑥口口⑤ |④--⑤|
口口口④ |--⑥-|
70
④②①③ |①---|
口口④④ |--②-|
④④口口 |③---|
③①②④ |④---|
71
⑥口②④ |①--②|
①①口口 |--③-|
⑤口④② |④--⑤|
⑤③③⑥ |--⑥-|
72
口①口口 |①---|
①①①② |----|
口①②② |②---|
口②②口 |----|
73
①③①③ |①---|
⑤①⑤口 |②-③-|
②①口口 |--④-|
口口口④ |⑤---|
74
②④②④ |①-②-|
口口口口 |--③-|
③①口口 |④---|
口⑤口⑤ |⑤---|
75
①③①③ |①---|
①①①口 |②-③-|
⑤①⑤口 |--④-|
②口口④ |⑤---|
76
②口口④ |①-②-|
口①①⑤ |--③-|
口①口③ |④---|
④①①⑤ |⑤---|
77
①②①⑤ |①---|
①①①口 |②-③-|
②①②④ |--④-|
⑤③口口 |⑤---|
78
口③①⑤ |①-②-|
口①口② |--③-|
口①口④ |④---|
⑤④①口 |⑤---|
79
①②①口 |①---|
①①①④ |②-③-|
②①②③ |--④-|
⑤④口口 |⑤---|
80
②口①① |①---|
⑥①③⑦ |----|
④①⑨⑤ |②③④⑤|
口⑧①① |⑥⑦⑧⑨|
81
④①①⑥ |①-②-|
口⑤口口 |③-④-|
口④口⑥ |--⑤-|
口口③② |⑥---|
82
③⑤②口 |①-②-|
⑤④④② |--③-|
②④④⑤ |④---|
①②⑤③ |⑤---|
83
③⑥②① |①-②-|
⑥④④① |③-④-|
①口口⑤ |--⑤-|
①②⑤③ |⑥---|
84
口口①① |①---|
口口口口 |----|
②③④⑤ |②③④⑤|
⑨⑧⑦⑥ |⑥⑦⑧⑨|
85
②⑤④① |①-②-|
③⑦①④ |③-④-|
⑦口⑥⑧ |⑤-⑥-|
口口口口 |⑦-⑧-|
86
②⑥⑧⑤ |①-②-|
②⑦③口 |③-④-|
口口⑤口 |⑤-⑥-|
⑦④口① |⑦-⑧-|
87
口口口口 |①-②-|
②口口口 |③-④-|
④口口①
口③②④

⑤⑥⑥⑥
口⑥⑥⑥
口⑥⑥⑥ |--⑤-|
⑤口口口 |--⑥-|

accuracy: 100%
最終更新:2024年06月12日 11:37