アットウィキロゴ
BPM:165
1
□□□□ |----|
□□□□ |----|
①②③④ |----|
□□□□ |①②③④|
2
①□□□ |①---|
□②∨□ |--②-|
□□③□ |----|
∧□□□ |③---|
3
□□□① |①---|
□③□□ |----|
∨∧□□ |②---|
②□□∧ |③---|

1□□3
□□□□
□□1□
3□□□
4
□□∨□ |①---|
□□□② |②---|
□□□∧ |③---|
□□①□ |④---|

□□□□
□∨□□
□□□④
□③□□

□□□□
□1□3
□□□□
□□□□
5
□□□□ |①---|
□③②□ |②---|
①□□□ |③---|
□□□□ |④⑤⑥⑦|

□□□□
□□□□
④⑤⑥⑦
□□□□

□□□□
□□□□
□□□□
□33□
6
①□□□ |①---|
□②∨□ |--②-|
□□③□ |----|
∧□□□ |③---|
7
□>□① |①---|
②□<□ |②---|
□>□③ |③---|
④□<□ |④---|

1□□3
4□□□
□□1□
□□□□
8
□□□□ |①---|
>□□① |②-③-|
□③□□ |----|
□④□□ |④---|

□□□□
□□□□
□□□1
2□□□
9
□□②□ |①---|
□①□□ |②---|
④⑤⑥⑦ |③---|
□□③□ |④⑤⑥⑦|

□□□□
□□□3
□□□□
□□□□
10
①①□□ |①---|
□③□④ |②-③-|
□□□□ |④---|
∧□②□ |⑤---|

□□□□
□□∨□
⑤□⑤□
□□□□

5□□□
□□□□
□□□□
□□□□
11
□①□① |①---|
②□□□ |②---|
□□□□ |③---|
□□□∧ |④---|

□□④□
□④□□
∨∧□③
③□□□

□□□3
□□□□
□□1□
4□□□
12
□②∨□ |①---|
□□□② |②---|
①□□∧ |③---|
□□①□ |④---|

□□□□
□∨□□
□□□④
□③□□

□□□□
□1□3
□□□□
□□□□
13
□□□□ |①---|
□③②□ |②---|
①□□④ |③---|
□□□□ |④---|

□□□□
□□□□
□□□□
□33□
14
∨②□③ |①---|
□□□□ |②---|
①∧□□ |③---|
□□□∧ |④-⑤-|

□□□□
⑤□□□
□□□□
□④□□

□3□□
□□□□
2□□□
□□□□
15
③⑥③□ |①---|
□□①□ |②---|
⑤④□□ |③--④|
②□②□ |⑤-⑥-|
16
⑫□□□ |①②③④|
①②⑦⑥ |⑤-⑥⑦|
⑨⑧③④ |⑧⑨⑩-|
⑪⑤⑩□ |⑪-⑫-|
17
□②①□ |①②③④|
④⑥□⑤ |⑤⑥⑦⑧|
□□⑦③ |⑨⑩⑪⑫|
□⑧□□ |⑬-⑭-|

⑭⑭⑬⑬
□□⑨□
⑩□□□
⑫□□⑪

□□□1
□□□□
□□□□
□□□□
18
⑩□□□ |①-②③|
⑦⑧⑤② |④-⑤-|
□③>① |⑥⑦-⑧|
⑥⑨④□ |⑨-⑩-|

□□□□
□□□□
□□□2
□□□□
19
□□□⑤ |①②-③|
□□③② |④-⑤-|
□□□□ |⑥-⑦⑧|
□□④① |⑨-⑩⑪|

□□□□
∨⑦□□
⑥⑪⑧□
⑨<□⑩

□□□□
□□□□
7□□□
⑩□□□
20
□□⑤□ |①-②③|
②>①□ |④-⑤-|
□□□③ |⑥⑦-⑧|
□④□□ |⑨-⑩-|

⑦⑧□□
□⑩□□
⑥⑨□□
□□□□

□□□□
□□2□
□□□□
□□□□
21
□□③② |①②-③|
⑥<⑤□ |④-⑤-|
□□④① |⑥--⑦⑧⑨|
⑦⑧⑨⑩ |⑩--⑪⑫⑬|

⑪⑫⑬□
□□□□
□□□□
□□□□

□□□□
7□□□
□□□□
□□□□
22
⑨□□① |①-②③|
∧③⑧⑤ |④⑤⑥-|
②⑥④□ |⑦⑧⑨-|
□∧□⑦ |⑩⑪⑫⑬|

□□⑫□
⑪⑬□□
□□□⑩
□□□□

⑩□□□
□□□□
□7□□
□□□□
23
□□□① |①-②③|
□□□∧ |④⑤⑥⑦--|
□□□□ |⑧⑨⑩-|
□□□□ |⑪⑫⑬⑭|

⑩□□□
∧□⑨③
②⑧□∨
④⑤⑥⑦

□□□□
⑭⑬□□
□□⑫⑪
□□□□

⑪□□2
□□□□
□□□□
□□□8
24
□□①□ |①-②③|
□∨∧③ |④⑤⑥-|
②⑥□□ |⑦⑧⑨-|
④□⑤□ |⑩⑪⑫⑬|

□⑨<⑧
□⑬□□
□□⑫⑦
□⑪□⑩

□⑩2□
□□□□
□7□□
□□□□
25
②>①⑥ |①--②③④|
③□□⑦ |⑤--⑥⑦⑧|
④□□⑧ |⑨⑩⑪⑫|
⑤□□□ |⑬⑭⑮⑯|

□⑫□□
⑯□⑬□
□⑭⑪□
□⑩⑮⑨

□□2□
□□□□
□□□□
□□□□
26
>□①□ |①---|
□□□□ |②-③-|
>□□③ |----|
②□□□ |④-⑤⑥|

□□□□
□□⑥⑤
④□□□
□□□□

□□2□
□□□□
□□□□
□□□□
27
③□□< |①---|
□①□□ |②-③-|
□□□□ |--④-|
□∧□② |⑤-⑥-⑦-⑧--⑨--|

□□⑤□
□□⑥□
⑨④⑦□
□□⑧□

□□□□
□2□□
□□□1
□□□□
28
□③□□ |①---|
②>□① |②-③-|
□□□□ |----|
□∧□□ |----|

1□□□
□□□2
□□□□
□□□□
29
④□⑤① |①②③④|
⑧□□⑦ |⑤⑥⑦⑧|
②□③□ |⑨-⑩-|
□⑥□□ |⑪-⑫-|

□□□⑫
□□⑪□
□□□⑩
□□⑨□

□1□□
□□□□
□□□□
□□□□
30
>□①□ |①---|
□□□□ |②-③-|
>□□③ |----|
②□□□ |④-⑤⑥|

□□□□
□□⑥⑤
④□□□
□□□□

□□2□
□□□□
□□□□
□□□□
31
③□□< |①---|
□①□□ |②-③-|
□□□□ |--④-|
□∧□② |⑤-⑥-⑦-⑧--⑨--|

□□⑤□
□□⑥□
⑨④⑦□
□□⑧□

□□□□
□2□□
□□□1
□□□□
32
□□□□ |①--②|
□>□① |③-④-|
□□□□ |----|
②②□□ |⑤-⑥⑦|

□□□□
④④□□
∧∧□□
□□□□

□□□□
□□⑦□
□⑥□□
□□□⑤

1□□□
55□3
□□□□
□□□□
33
□②□① |①-②-|
⑤□∨□ |③-④-|
□□□□ |--⑤-|
③□④□ |⑥⑦⑧⑨|

□□□□
□□⑦⑥
⑨⑧□□
□□□□

□□□□
□□□□
□□□□
□□5□
34
>□①□ |①---|
□□□□ |②-③-|
>□□③ |④---|
②□□□ |⑤-⑥⑦|

□□□□
④□⑦⑥
⑤□□□
□□□□

□□2□
□□□□
□□□□
□□□□
35
③□□< |①---|
□①□□ |②-③-|
□□□□ |④-⑤-|
□∧□② |⑥-⑦-⑧-⑨--⑩--|

□□⑥④
□□⑦□
⑩⑤⑧□
□□⑨□

□□□□
□2□□
□□□1
□□□□
36
□③□□ |①---|
②>□① |②-③-|
□□□□ |④---|
□∧□□ |⑤---|

□□□□
□□⑤□
□□□□
□□□④

1□□□
□□□2
□□□□
□□□□
37
④□⑤① |①②③④|
⑧□□⑦ |⑤⑥⑦⑧|
②□③□ |⑨-⑩-|
□⑥□□ |⑪-⑫-|

□□□⑫
□□⑪□
□□□⑩
□□⑨□

□1□□
□□□□
□□□□
□□□□
38
>□①□ |①---|
④□□□ |②-③-|
>□□③ |④---|
②□□□ |⑤-⑥⑦|

□□□□
□□⑦⑥
⑤□□□
□□□□

□□2□
□□□□
□□□□
□□□□
39
③□□□ |①---|
□①□□ |②-③-|
□□□□ |④-⑤-|
□∧□② |⑥-⑦-|

□□□□
□2□□
□□□1
□□□□

□>□④
⑤□<□
□>□⑥
⑦□<□

□□□5
6□□□
□□□7
□□□□
40
□□□□ |①--②|
□②□② |--③-|
③□③□ |④---|
□□①① |⑤---|

④④□□
∧∧□□
□□□□
□⑤⑤□

55□□
□□□□
□□□□
1□□□
41
□□□④ |①-②-|
③□②⑤ |③-④⑤|
□□□⑥ |⑥-⑦-|
③□□① |⑧-⑨-|

□⑦⑦□
□⑨⑨□
□⑧⑧□
□□□□
42
②>□③ |①--②|
□□□□ |--③-|
②>□③ |----|
□①①□ |④--⑤|

□□□□
□□□□
⑤□⑤□
④□④□
43
④□③□ |--①-|
①④①⑦ |②-③-|
□⑥□□ |④-⑤-|
⑥□□⑤ |⑥-⑦-|

□□□2
□□□□
□□□2
□□□□
44
□②□□ |①--②|
□□□□ |--③-|
②□□□ |----|
□①①□ |④--⑤|

>□③□
□□□□
□>□③
□□□□

□□□□
□□□□
⑤□⑤□
④□④□
45
□□□⑤ |--①-|
①④①③ |②---|
□□⑤□ |③-④-|
⑥□□③ |⑤-⑥-|

□□2□
□□□□
□□□2
□□□□
46
②□□□ |①--②|
□□□□ |--③-|
②□□□ |----|
□①①□ |④--⑤|

□□□□
□>□③
□□□□
□>□③

□□□□
□□□□
⑤□⑤□
④□④□
47
③④⑤⑥ |--①-|
①□①□ |②--③④⑤|
□⑦□⑧ |⑥-⑦-|
⑨□□□ |⑧-⑨-|

□□□□
□□□2
□□□□
□□□2
48
②□>③ |①--②|
□②③⑤ |--③-|
□□□⑥ |④-⑤⑥|
□①①□ |⑦--⑧|

□□□∨
□□□□
⑧□⑧□
⑦□⑦⑦

□□□4
□□□□
□□□□
□□□□
49
□③④⑤ |--①-|
①□①□ |②-③④|
□□□□ |⑤--⑥|
⑤□⑤∧ |--⑦-|

□□□□
⑦⑦⑦□
⑥⑥⑥□
□□□□

□□□□
□□□□
□□□□
□□□2
50
□□□□ |①---|
□④③□ |----|
②□□② |--②-|
⑥□□⑤ |③④⑤⑥|

□□□1
□□□□
□□□□
□□□□
51
□□①□ |①-②③|
□□□① |④-⑤⑥|
□□∧□ |⑦-⑧⑨|
□□□□ |⑩-⑪⑫|

□④□□
□□□□
□□③□
□②□□

□□□⑦
⑥□⑦∧
□□□⑤
□□□□

⑧□□□
□⑫□⑪
∨⑩□□
⑩□⑨□

□□58
□□□□
□□□□
⑪□□□
52
□□□∨ |①-②③|
□□□□ |④-⑤⑥|
□□①□ |⑦-⑧⑨|
□□□① |⑩-⑪⑫|

□⑥□□
④□⑤□
□□□③
□②⑦□

⑩□□□
∧⑩□⑨
⑧⑫⑪□
□□□□

⑪□□□
□□□□
□□□□
□□□8
53
□>□① |①-②③|
□□□□ |④-⑤⑥|
□□□① |⑦-⑧⑨|
□□□□ |⑩-⑪⑫|

□④□□
□□③□
□□□□
②□□□

□□⑤□
⑥>□⑦
□□□□
□□⑦□

⑩□<□
□⑫□□
⑩□⑨□
□⑧□⑪

⑪□□5
□□□8
□□□□
□□□□
54
□□□□ |①-②③|
□□①□ |④-⑤⑥|
□>□① |⑦-⑧⑨|
□□□□ |⑩⑪⑫⑬|

□⑥⑤③
④⑨□□
⑧②⑦□
⑬⑫⑪⑩

□□□□
□□□□
□□□4
□□□□
55
□□□□ |①-②③|
□□□□ |④-⑤⑥|
□>□① |⑦-⑧⑨|
□□□□ |⑩-⑪⑫|

②③>④
⑤⑥⑨⑧
□⑦⑩□
□□□□

⑪⑫□□
□□□□
□□□□
□□□□
56
□⑪□□ |①-②③|
②③⑥⑤ |④-⑤⑥|
①④⑦□ |⑦-⑧⑨|
⑧⑨⑩□ |⑩-⑪-|

□□□4
□□□□
□□□4
□□□□
57
②□>③ |①--②|
④④②□ |③-④-|
①①>① |⑤--⑥|
□□□□ |---⑦|

⑦□□□
□□□□
⑦□⑥□
⑤⑥⑤□
58
⑥②①□ |--①-|
②④④① |②--③|
⑧③③□ |--④-|
□□⑤⑦ |⑤⑥⑦⑧|

□□□2
□□□□
□□□2
□□□□
59
□□①□ |①-②③|
□□□① |④-⑤⑥|
□□∧□ |⑦-⑧⑨|
□□□□ |⑩-⑪⑫|

□④□⑦
⑥□⑦∧
□□③⑤
□②□□

⑧□□□
□⑫□⑪
∨⑩□□
⑩□⑨□

□□58
□□□□
□□□□
⑪□□□
60
□□□∨ |①-②③|
□□□□ |④-⑤⑥|
□□①□ |⑦-⑧⑨|
□□□① |⑩-⑪⑫|

□⑥□□
④□⑤□
□□□③
□②⑦□

⑩□□□
∧⑩□⑨
⑧⑫⑪□
□□□□

⑪□□□
□□□□
□□□□
□□□8
61
□>□① |①-②③|
□□□□ |④-⑤⑥|
□□□① |⑦-⑧⑨|
□□□□ |⑩-⑪⑫|

□④□□
□□③□
□□□□
②□□□

□□⑤□
⑥>□⑦
□□□□
□□⑦□

⑩□<□
□⑫□□
⑩□⑨□
□⑧□⑪

⑪□□5
□□□8
□□□□
□□□□
62
□□□□ |①-②③|
□□①□ |④-⑤⑥|
□>□① |⑦-⑧⑨|
□□□□ |⑩⑪⑫⑬|

□⑥⑤③
④⑨□□
⑧②⑦□
⑬⑫⑪⑩

□□□□
□□□□
□□□4
□□□□
63
②②>② |①---|
□□□□ |②---|
□>□① |③---|
□□□□ |④-⑤-|

□□□□
④⑤□□
③③□□
④⑤□□
64
□□□□ |①---|
□□①□ |②---|
□②②□ |③--④|
□□①□ |⑤-⑥-|

③□③□
□⑥⑥④
□□□□
□□⑤□

□□□2
□□□□
□□□2
□□□□
65
□②③□ |①--②|
□□□□ |--③-|
②□□③ |④--⑤|
①∧∧① |---⑥|

□□□□
□□⑥④
□□④□
□⑤⑤⑥
66
□□□② |--①-|
③⑤□□ |②--③|
①□□② |④-⑤-|
□④④□ |⑥-⑦-|

⑥□□□
□□□□
⑦□□□
□□□⑥

□22□
□□□□
□□□□
□□□□
67
⑩□□□ |①-②③|
⑦⑧⑤② |④-⑤-|
□③>① |⑥⑦-⑧|
⑥⑨④□ |⑨-⑩-|

□□□□
□□□□
□□□2
□□□□
68
□□□⑤ |①②-③|
∨⑦③② |④-⑤-|
⑥□⑧□ |⑥-⑦⑧|
□□④① |⑨-⑩⑪|

□□□□
□□□□
□⑪□□
⑨<□⑩

□□□□
□□□□
7□□□
⑩□□□
69
□□⑤□ |①-②③|
②>①□ |④-⑤-|
□□□③ |⑥⑦-⑧|
□④□□ |⑨-⑩-|

⑦⑧□□
□⑩□□
⑥⑨□□
□□□□

□□□□
□□2□
□□□□
□□□□
70
□□③② |①②-③|
□□□□ |④⑤⑥⑦|
□□□① |⑧⑨⑩⑪|
□□□□ |⑫⑬⑭⑮|

⑦⑮□□
⑪□⑩⑥
⑤⑨④⑭
□⑬⑫⑧
71
□□>① |①-②③|
□③□⑤ |④⑤⑥-|
②⑥④□ |⑦⑧⑨-|
□∧□□ |⑩⑪⑫⑬|

⑨□□□
□□⑧□
∧□□□
□□□⑦

□□⑫□
⑪⑬□□
□□□⑩
□□□□

⑩□□2
□□□□
□7□□
□□□□
72
□□□① |①-②③|
□□□∧ |④⑤⑥-|
□□□□ |⑦⑧⑨-|
□□□□ |⑩⑪⑫⑬|

⑨□□□
∧□⑧③
②⑦□∨
□④⑤⑥

□□□□
⑬⑫□□
□□⑪⑩
□□□□

⑩□□2
□□□□
□□□□
□□□7
73
□□①□ |①-②③|
□∨∧③ |④⑤⑥-|
②⑥□□ |⑦⑧⑨-|
④□⑤□ |⑩⑪⑫⑬|

□⑨<⑧
□⑬□□
□□⑫⑦
□⑪□⑩

□⑩2□
□□□□
□7□□
□□□□
74
⑤>①□ |①-②③|
④□□□ |④⑤⑥-|
③⑥□⑥ |----|
②□□□ |----|

□□2□
□□□□
□□□□
□□□□
最終更新:2024年02月14日 11:32