アットウィキロゴ
Indigo Noctune / Power Of Nature
BPM:150
Notes:990

1
⑩②⑨① |①②③④|
⑫④⑪③ |⑤⑥⑦⑧|
⑭⑥⑬⑤ |⑨⑩⑪⑫|
⑯⑧⑮⑦ |⑬⑭⑮⑯|

2
⑩②⑨① |①②③④|
⑫④⑪③ |⑤⑥⑦⑧|
⑭⑥⑬⑤ |⑨⑩⑪⑫|
⑯⑧⑮⑦ |⑬⑭⑮⑯|

3
⑩②⑨① |①②③④|
⑫④⑪③ |⑤⑥⑦⑧|
⑭⑥⑬⑤ |⑨⑩⑪⑫|
⑯⑧⑮⑦ |⑬⑭⑮⑯|

4
□②⑦① |①②③④|
⑧④⑦③ |⑤⑥⑦-|
⑧⑥⑨⑤ |⑧-⑨-|
⑩⑩⑨□ |⑩---|

5
②□②□ |①---|
②①②① |--②-|
□①④① |----|
□□□③ |--③④|

6
⑤□□□ |①-②③|
⑧①⑨④ |④-⑤-|
□⑦⑨④ |⑥⑦⑧-|
②③⑥□ |⑨-⑩⑪|

□□□□
□□□□
□□□□
⑩⑪□□

7
②①□① |①---|
②①□① |--②-|
□□□② |----|
□□□② |③---|

□□③□
□□□③
③□□□
□③□□

8
□②①□ |----|
③④□□ |----|
□□⑥⑤ |①②③④|
□⑦⑧□ |⑤⑥⑦⑧|

9
③□□① |①--②|
□□②□ |--③-|
□②□□ |----|
③□□① |④⑤⑥⑦----|

□□□④
□□□⑤
□□□⑥
□□□⑦

10
④④□⑥ |①-②-|
⑤③③□ |③-④-|
②②□⑥ |⑤-⑥-|
⑤①①□ |⑦-⑧-|

□□□□
□□□□
⑧□⑧□
□⑦□⑦

11
⑦□□③ |①---|
⑧②②④ |--②-|
⑨①□⑤ |----③④⑤⑥|
⑩□①⑥ |⑦⑧⑨⑩----|

12
□⑥⑥□ |①---|
⑤②②⑤ |--②-|
④①①④ |③④⑤-|
③□□③ |⑥---|

13
③□⑩③ |①-②-|
□⑤④⑨ |③-④⑤|
⑥⑦⑧⑪ |⑥-⑦⑧|
□①②□ |⑨-⑩⑪|

14
⑬⑥⑮⑧ |①②③④|
⑤⑭⑦⑯ |⑤⑥⑦⑧|
⑪⑨⑩⑫ |⑨⑩⑪⑫|
③①②④ |⑬⑭⑮⑯|

15
□①□⑤ |①②③④|
②□⑥□ |⑤⑥⑦⑧|
⑪⑨⑩⑫ |⑨⑩⑪⑫|
⑦④③⑧ |⑬⑭⑮⑯|

⑭□□□
⑬□□□
□□□□
□⑯⑮□

16
⑦①①⑦ |①-②③|
⑦①①⑦ |④⑤⑥-|
⑥④⑤⑧ |⑦-⑧-|
②□□③ |⑨⑩⑪⑫⑬-⑭-|

□⑨⑩□
□⑪⑫□
□□□□
⑬□□⑭

17
⑤⑪⑩⑥ |①②③④|
⑦⑨⑫⑧ |⑤⑥⑦⑧|
⑬①②□ |⑨⑩⑪⑫|
□③④□ |⑬⑭⑮⑯|

□□□□
□□□□
□□⑮□
□⑭□⑯

18
①⑦⑥② |①②③④|
③⑤⑧④ |⑤⑥⑦⑧|
⑨⑬⑯⑩ |⑨⑩⑪⑫|
⑪⑮⑭⑫ |⑬⑭⑮⑯|

19
①④①④ |①-②-|
③②③② |③-④-|
□⑤□⑤ |⑤-⑥-|
⑥⑦⑥⑦ |⑦---|

20
⑤④③② |①--②③④|
⑦①①⑥ |⑤⑥⑦⑧|
□⑪⑪⑧ |⑨-⑩-|
⑩⑨⑨⑫ |⑪-⑫-|

21
①⑤□□ |①②③④|
②□④③ |⑤-⑥⑦|
⑩□□⑨ |⑧⑨⑩-|
⑧⑦⑥⑪ |⑪⑫-⑬|

⑫□□⑬
⑫□□⑬
□□□□
□□□□

22
□①②⑩ |-①②③|
⑧□③⑨ |④⑤⑥⑦|
⑥□□⑦ |⑧-⑨⑩|
④□⑤□ |⑪⑫⑬⑭⑮⑯⑰⑱|

□⑪⑮□
□⑫⑯□
□⑬⑰□
□⑭⑱□

23
□□⑧□ |①②③④|
⑤⑨⑧⑥ |⑤-⑥-|
③⑦⑨④ |⑦⑧-⑨|
①⑦□② |-⑩-⑪|

⑪□□⑩
□□□□
□□□□
⑩□□⑪

24
④①③② |----|
⑧⑦⑥⑤ |①---|
⑨⑩⑪⑫ |②-③-④-⑤⑥|
□□①□ |⑦⑧⑨⑩⑪⑫--|

25
□③⑥④ |①②③④|
□□⑥□ |⑤-⑥-|
⑨⑦□⑧ |⑦⑧⑨⑩|
⑤□②① |⑪⑫⑬-|

⑬□□□
□□□□
□□□□
□⑪⑫⑩

26
□⑨⑧□ |①②③④|
①②③④ |--⑤-|
⑤⑪□⑩ |⑥⑦⑧⑨|
⑤⑦⑥□ |⑩⑪⑫⑬|

□□□□
⑬□□⑫
□□□□
□□□□

27
①⑦⑦④ |①-②-|
⑦④①⑦ |③-④-|
③⑤②⑥ |⑤-⑥-|
②⑥③⑤ |⑦---|

28
□□□□ |--①-|
⑤□⑥⑥ |②-③-|
②④②④ |④--⑤|
①③①③ |⑥-⑦-|

□□□□
□□□□
□□□□
⑦□⑦□

29
⑤⑥①① |①---|
□□□□ |②---|
②④③④ |③---|
□②□③ |④--⑤⑥⑦|

□□⑦□
□□□□
□□□□
□□□□

30
□□□① |①--②③④|
②③④⑤ |⑤--⑥⑦⑧|
⑥⑦⑧⑨ |⑨--⑩⑪⑫|
⑩⑪⑫⑬ |⑬-⑭-|

□□□□
⑭⑭□□
□□□□
□□□□

31
①①□□ |①---|
④⑥②③ |②---|
□②⑤③ |③-④-|
□□□□ |⑤-⑥-|

32
⑤⑤□□ |①-②-|
□⑥⑥□ |③-④-|
②③⑦⑦ |⑤-⑥-|
⑧⑧④① |⑦-⑧-|

33
⑥⑦⑧□ |①---|
□□□□ |--②-|
①①③③ |③-④-|
④□⑤② |⑤--⑥⑦⑧|

34
□□□① |①--②③④|
②③④⑤ |⑤--⑥⑦⑧|
⑥⑦⑧⑨ |⑨--⑩⑪⑫|
⑩⑪⑫⑬ |⑬-⑭-|

□□□□
⑭⑭□□
□□□□
□□□□

35
①①③③ |①---|
□□②⑤ |--②-|
□□⑤□ |③---|
④□□□ |④-⑤-|

36
□□□□ |①---|
③⑤⑥□ |②-③-|
□③□⑦ |④-⑤-|
□①④② |⑥-⑦-|

37
□□①① |①---|
□□□□ |②---|
②④③④ |③---|
□②□③ |④--⑤⑥⑦|

⑤⑥⑦□
□□□□
□□□□
□□□□

38
□□□① |①--②③④|
②③④⑤ |⑤--⑥⑦⑧|
⑥⑦⑧⑨ |⑨--⑩⑪⑫|
⑩⑪⑫⑬ |⑬-⑭-|

□□□□
⑭⑭□□
□□□□
□□□□

39
①①□□ |①---|
④⑥②③ |②---|
□②⑤③ |③-④-|
□□□□ |⑤-⑥-|

40
⑤⑤□□ |①-②-|
□⑥⑥□ |③-④-|
②③⑦⑦ |⑤-⑥-|
⑧⑧④① |⑦-⑧-|

41
⑤⑥②② |①---|
②③□□ |②---|
①①③③ |③---|
□□④④ |④--⑤⑥⑦|

□□⑦□
□□□□
□□□□
□□□□

42
□□□① |①--②③④|
②③④⑤ |⑤--⑥⑦⑧|
⑥⑦⑧⑨ |⑨--⑩⑪⑫|
⑩⑪⑫⑬ |⑬-⑭-|

□□□□
⑭⑭□□
□□□□
□□□□

43
②□①□ |①---|
□□②① |②-③④|
□③④⑤ |⑤---|
□□□□ |⑥-⑦⑧|

□□⑥□
□⑥□□
□□□□
□⑦⑧□

44
□②⑥□ |①---|
⑥□□② |②-③④|
□③④⑤ |⑤---|
□⑦⑧① |⑥-⑦⑧|

45
□⑦⑧□ |①---|
□③④⑤ |②-③④|
□⑥②□ |⑤---|
②□⑥① |⑥-⑦⑧|

46
□⑧⑧① |①---|
□③④⑤ |②-③④|
□⑥⑦② |⑤-⑥-|
⑥②□⑦ |⑦-⑧-|

47
①□□① |①---|
□□□□ |----|
①□□① |----|
□□□□ |----|

48
□□□□ |----|
□□□□ |----|
□□□□ |----|
□□□□ |----|

49
②□□① |①②③④|
⑫④□③ |-⑤⑥⑦|
⑧□⑪⑦ |⑧⑨⑩⑪|
⑥⑩⑨⑤ |⑫-⑬⑭|

□□⑭□
□□□⑬
□□□□
□□□□

50
②⑨□③ |①②③-|
□①⑧□ |④⑤⑥⑦|
⑤⑦⑫⑩ |⑧⑨⑩-|
④⑪⑥□ |⑪⑫⑬⑭|

□□⑭□
□⑬□□
□□□□
□□□□

51
⑥③□② |①-②-|
④⑦⑧② |③④-⑤|
①□□□ |-⑥⑦⑧|
①□⑤⑤ |⑨-⑩-⑪-⑫--⑬--|

□□□□
□□□□
⑨⑩⑪⑫
⑬□□□

52
□□□□ |①-②③|
④⑤⑤③ |④--⑤|
□□□□ |--⑥⑦|
⑥①□② |⑧-⑨⑩|

□□□□
□□□□
□□□⑨
□⑦⑧⑩

53
①③④② |①②③④|
⑤⑥⑦⑧ |⑤⑥⑦⑧⑨-⑩-|
⑪⑨⑩⑫ |⑪-⑫-⑬⑭⑮-|
⑬⑭⑮□ |⑯⑰⑱⑲|

⑯⑱⑲⑰
□□□□
□□□□
□□□□

54
⑩⑪⑪⑩ |①②③④|
③①②④ |⑤⑥⑦⑧|
⑤□□□ |⑨⑩-⑪|
⑦⑨⑧⑥ |-⑫-⑬|

□□□□
□□⑫⑬
□⑫□□
□□□□

55
④□⑥⑤ |①②③-|
⑦④□□ |④-⑤⑥|
①□③② |⑦-⑧⑨⑩-⑪-|
□⑩⑨⑧ |⑫⑬⑭-⑮-⑯-|

□□□□
□□□⑯
⑪⑭⑬⑫
⑮□□□

56
①③③④ |①-②-|
⑪②②⑫ |③-④-|
⑨□□⑩ |⑤⑥⑦⑧|
⑦⑤⑥⑧ |⑨⑩⑪⑫|

57
①②①② |①-②-|
□③③□ |③-④-|
□⑥⑥□ |⑤-⑥-|
⑤④⑤④ |⑦-⑧-|

⑦⑧⑦⑧
□□□□
□□□□
□□□□

58
□□□□ |①-②-|
⑤①①⑤ |③-④-|
⑥④④⑥ |⑤-⑥-|
③②③② |⑦---|

□⑦⑦□
□⑦⑦□
□□□□
□□□□

59
④⑩⑨③ |①②③④|
⑥□□⑤ |⑤⑥⑦⑧|
□⑧⑦□ |⑨⑩--|
②□□① |⑪⑫⑬⑭|

□□□□
□□□□
⑭□□⑬
⑫□□⑪

60
④□□③ |①②③④|
⑭②①⑬ |⑤⑥⑦⑧|
⑫⑧⑦⑪ |⑨⑩⑪⑫|
⑩⑥⑤⑨ |⑬⑭⑮⑯|

⑯□□⑮
□□□□
□□□□
□□□□

61
⑪⑧⑦⑫ |①②③④|
⑩⑥⑤⑨ |⑤⑥⑦⑧|
⑩④③⑨ |⑨⑩-⑪|
⑪②①⑫ |-⑫-⑬|

□□□□
□□⑬□
□⑬□□
□□□□

62
□①④□ |--①-|
□③⑤④ |--②③|
②⑥③□ |④---|
⑦②①□ |⑤⑥⑦-|

63
①□⑧⑥ |①②③④|
③⑪⑩④ |⑤⑥--|
⑤⑨⑫② |⑦⑧⑨⑩|
□⑦□① |⑪⑫-⑬|

□□□□
⑬□□⑬
□□□□
□□□□

64
□⑤⑥□ |①-②-|
□⑦⑧□ |③-④-|
①⑨⑩① |⑤⑥⑦⑧|
□③②④ |⑨⑩⑪⑫|

□□□□
□□□□
⑪□□⑫
□□□□

65
①③③④ |①-②-|
①⑦⑥④ |③-④-|
□⑥⑦□ |⑤-⑥-|
⑤⑤②② |⑦---|

66
⑦□③□ |--①-|
②④□③ |②-③-|
⑥□⑥① |④--⑤|
②④①⑤ |⑥-⑦-|

67
□①□① |①---|
②□②□ |--②-|
□①④① |----|
②□②③ |--③④|

68
⑤□⑥□ |①-②-|
④①③③ |③-④⑤|
②⑦□③ |⑥⑦-⑧|
②②⑨⑧ |⑨-⑩⑪|

□□□□
□□□□
□□□□
⑩⑪□□

69
⑤①□① |①-②③|
⑤①③① |-④⑤-|
□④②⑤ |---⑥⑦⑧|
□⑥⑦⑤ |⑨---|

□□□⑨
□⑧□⑨
⑨□□□
⑨□□□

70
①④③□ |--①-|
⑤⑥②□ |-②--|
□②①⑦ |③④⑤⑥|
□□□① |⑦⑧⑨⑩|

□□□□
□□□□
□□⑧□
□⑨⑩□

71
③□□① |①--②|
□□②① |--③-|
③②□□ |----|
③□□① |--④-|

□□④□
□□□④
□□□□
□□□□

72
④④□⑥ |①-②-|
□③③□ |③-④-|
②②①□ |--⑤⑥|
⑤①④④ |⑦⑧⑨-|

□□⑧□
⑨□□□
□□□⑨
□⑦□□

73
□②④② |①---|
④①①④ |--②-|
③①①③ |--③-|
②③②□ |④-⑤-|

⑤□□□
□□⑤□
□⑤□□
□□□⑤

74
①□□□ |----|
②□□□ |----|
③□□□ |--①-|
□□□□ |②-③-|

75
⑤□⑦① |①-②-|
⑥□⑧② |③-④-|
□□⑨③ |⑤-⑥-|
⑪⑫⑩④ |⑦⑧⑨⑩⑪-⑫-|
最終更新:2024年02月14日 11:33