アットウィキロゴ
Music-U
Qrispy Joybox feat.mao

BASIC

Level: 3
BPM: 152
Notes: 252

1
口口口口 |----|
口口口口 |----|
口口口口 |----|
口口口口 |----|
2
口口口口 |①---|
①②③口 |②---|
口口口口 |③---|
口口口口 |----|
3
口口口口 |①---|
口口口口 |②---|
口③②① |③---|
口口口口 |----|
4
口口口口 |①---|
口口口口 |②---|
口口口口 |③---|
①②③口 |----|
5
口口口口 |①---|
口②②口 |----|
口①①口 |②---|
口口口口 |----|
6
口③②① |①---|
口口口口 |②---|
口口口口 |③---|
口口口口 |----|
7
口口口口 |①---|
①②③口 |②---|
口口口口 |③---|
口口口口 |----|
8
口口口口 |①---|
口口口口 |②---|
口③④口 |③---|
口①②口 |④---|
9
②口口② |①---|
口①口口 |----|
口口口口 |②---|
口口口口 |----|
10
口口口口 |①---|
口③②① |②---|
口口口口 |③---|
口口口口 |----|
11
②口口② |①---|
口口口口 |----|
①口口① |②---|
口口口口 |----|
12
口口口口 |①---|
①②③口 |②---|
口口口口 |③---|
口口口口 |----|
13
②口口② |①---|
口口口口 |----|
①口口① |②---|
口口口口 |----|
14
口口口口 |①---|
口口口口 |②---|
口③②① |③---|
口口口口 |----|
15
口口口口 |①---|
②口口② |----|
口口口口 |②---|
①口口① |----|
16
口口口口 |①---|
口口口口 |②---|
①②③口 |③---|
口口口口 |----|
17
口口口口 |①---|
②口口② |----|
口口口口 |②---|
口①①口 |----|
18
口口口口 |①---|
口口口口 |----|
口口③② |②---|
口①①口 |③---|
19
②口口② |①---|
口口口口 |--②-|
口①口口 |----|
口口口口 |----|
20
口口口口 |①---|
口口口口 |----|
②②口口 |②---|
口口①① |----|
21
口口口口 |①---|
④③②① |②---|
口口口口 |③---|
口口口口 |④---|
22
口口①① |①---|
口口口口 |----|
②②口口 |②---|
口口口口 |----|
23
口口口口 |①---|
①②③④ |②---|
口口口口 |③---|
口口口口 |④---|
24
口口口口 |①---|
口口口口 |----|
口口②② |②---|
①①口口 |----|
25
口口口口 |①---|
①②③④ |②---|
口口口口 |③---|
口口口口 |④---|
26
①①口口 |①---|
口口口口 |----|
口口口口 |②---|
口口②② |----|
27
口口口口 |①---|
口口口口 |②---|
④③②① |③---|
口口口口 |④---|
28
口④口口 |①---|
口口③口 |②---|
口②口口 |③---|
口口①口 |④---|
29
口口口口 |①---|
口口口口 |②---|
④③②① |③---|
口口口口 |④---|
30
口口口① |①---|
②口口口 |②---|
口口口③ |③---|
④口口口 |④---|
31
口口口口 |①---|
④③②① |②---|
口口口口 |③---|
口口口口 |④---|
32
口口④口 |①---|
口③口口 |②---|
口口②口 |③---|
口①口口 |④---|
33
口口口口 |①---|
①②③④ |②---|
口口口口 |③---|
口口口口 |④---|
34
口口口④ |①---|
③口口口 |②---|
口口口② |③---|
①口口口 |④---|
35
口①①口 |①---|
口口口口 |----|
口口口口 |----|
口口口口 |----|
36
口口口口 |①---|
①口口① |----|
口口口口 |②---|
②口口② |----|
37
口口口口 |①---|
口口口口 |②---|
口③②① |③---|
口口口口 |----|
38
④口口③ |①---|
②口口① |②---|
口口口口 |③---|
口口口口 |④---|
39
口口口口 |①---|
口口①口 |②---|
口②口口 |----|
口口口口 |----|
40
口口口口 |①---|
口②口④ |②---|
①口③口 |③---|
口口口口 |④---|
41
口口口口 |①---|
口②②口 |----|
口口口口 |②---|
口①①口 |----|
42
口口口口 |①---|
①口口① |②---|
②口口② |③---|
③口口③ |----|
43
口②②口 |①---|
口口口口 |--②-|
口①①口 |----|
口口口口 |----|
44
口口口口 |----|
口口口口 |----|
口口口口
口口口口
45
口口口口 |①---|
口口①① |----|
口口口口 |②---|
②②口口 |----|
46
口口口口 |①---|
④口②口 |②---|
口③口① |③---|
口口口口 |④---|
47
口口①① |①---|
口口口口 |----|
口口口口 |②---|
②②口口 |----|
48
口③②口 |①---|
④口口① |②---|
口口口口 |③---|
口口口口 |④---|
49
口口口口 |①---|
口口口口 |----|
口口②② |②---|
①①口口 |----|
50
口口口口 |①---|
口②口④ |②---|
①口③口 |③---|
口口口口 |④---|
51
①①口口 |①---|
口口口口 |----|
口口②② |②---|
口口口口 |----|
52
口口口口 |①---|
口口口口 |②---|
①口口④ |③---|
口②③口 |④---|
53
口口口口 |①---|
①②③④ |②---|
口口口口 |③---|
口口口口 |④---|
54
口②②口 |①---|
口口口口 |----|
口①①口 |②---|
口口口口 |----|
55
口口口口 |①---|
④③②① |②---|
口口口口 |③---|
口口口口 |④---|
56
口口口口 |①---|
口口口口 |②---|
口②①口 |③---|
④口口③ |④---|
57
口口口口 |①---|
口③②口 |②---|
④口口① |③---|
口口口口 |④---|
58
②口口① |①---|
口口口口 |②---|
口④③口 |③---|
口口口口 |④---|
59
口口口口 |①---|
口口②① |②---|
④③口口 |③---|
口口口口 |④---|
60
口口③口 |①---|
口②口口 |②---|
口口①口 |③---|
口口口口 |----|
61
口口口口 |①---|
口③②① |②---|
口口口口 |③---|
口口口口 |----|
62
②口口② |①---|
口口口口 |----|
①口口① |②---|
口口口口 |----|
63
口口口口 |①---|
①②③口 |②---|
口口口口 |③---|
口口口口 |----|
64
②口口② |①---|
口口口口 |----|
①口口① |②---|
口口口口 |----|
65
口口口口 |①---|
口口口口 |②---|
口③②① |③---|
口口口口 |----|
66
口口口口 |①---|
②口口② |----|
口口口口 |②---|
①口口① |----|
67
口口口口 |①---|
口口口口 |②---|
①②③口 |③---|
口口口口 |----|
68
口口口口 |①---|
②口口② |----|
口口口口 |②---|
口①①口 |----|
69
口口口口 |①---|
口口口口 |----|
口口③② |②---|
口①①口 |③---|
70
②口口② |①---|
口口口口 |--②-|
口①口口 |----|
口口口口 |----|

accuracy: 100%
最終更新:2024年07月20日 02:03