アットウィキロゴ
Music-U
Qrispy Joybox feat.mao

ADVANCED

Level: 5
BPM: 152
Notes: 370

1
口口口口 |----|
口口口口 |----|
口口口口 |----|
口口口口 |----|
2
口口①⑤ |①---|
口④③口 |②---|
口口口口 |③-④-|
口②口口 |--⑤-|
3
口口口口 |--①-|
口口口① |--②-|
口口口② |--③-|
口口口③ |----|
4
口①口口 |①---|
口口口口 |②---|
口③④口 |③-④-|
⑤口②口 |--⑤-|
5
③口口口 |--①-|
②口口口 |--②-|
①口口口 |--③-|
口口口口 |----|
6
⑤①①口 |①---|
口口④口 |②---|
口③口口 |③-④-|
口②②口 |--⑤-|
7
口口口口 |--①-|
①口口口 |--②-|
②口口口 |--③-|
③④口口 |--④-|
8
口①①④ |----|
口③口口 |①---|
口口②口 |②-③-|
口口口口 |--④-|
9
口③③口 |--①-|
口口口① |--②-|
口口口② |----|
口口口口 |③---|
10
口口口口 |----|
口口①口 |①---|
②口口口 |②---|
口口③口 |③---|
11
③④⑤口 |①---|
口口口② |②---|
口①口口 |--③-|
口口口口 |④-⑤-|
12
口口口口 |----|
口口口口 |①---|
①口口口 |②---|
③口②口 |③---|
13
口⑤④③ |①---|
口②口口 |②---|
口口口① |--③-|
口口口口 |④-⑤-|
14
口口口口 |----|
口口③口 |①---|
口口口① |②---|
口②口口 |③---|
15
口口口口 |①---|
①口口② |②---|
口口口口 |--③-|
③④⑤口 |④-⑤-|
16
口③③口 |----|
口③③① |①---|
口②口口 |②---|
口口口口 |--③-|
17
①口口① |----|
①口口① |--①-|
口口口口 |----|
口口口口 |----|
18
①口口① |--①-|
口口②口 |----|
口③口口 |②---|
口口口口 |③---|
19
口口口口 |①---|
口口口口 |--②-|
②口口② |----|
口口①口 |----|
20
口口口口 |--①-|
口②③口 |--②-|
口④⑤口 |③---|
口口口① |④-⑤-|
21
③口口② |--①-|
⑤口口④ |--②-|
口口口⑥ |③-④-|
①口口口 |⑤-⑥-|
22
口口口口 |--①-|
口⑤④口 |--②-|
口③②口 |③---|
①口口口 |④-⑤-|
23
⑥口口口 |--①-|
④口口⑤ |--②-|
②口口③ |③-④-|
口口口① |⑤-⑥-|
24
口口口口 |--①-|
口④⑤口 |--②-|
口②③口 |③---|
口口口① |④-⑤-|
25
③口口口 |--①-|
②口口口 |--②-|
①口口口 |--③-|
口口口口 |----|
26
口口口⑤ |--①-|
④口③口 |--②-|
口②口口 |③---|
口①①口 |④-⑤-|
27
口③③口 |--①-|
口口口① |--②-|
口④④② |--③-|
口口口口 |--④-|
28
口口口口 |--①-|
①②③④ |②-③-|
口⑤⑥口 |④---|
口口口口 |⑤-⑥-|
29
③口口② |--①-|
⑤口口④ |--②-|
口口口⑥ |③-④-|
①口口口 |⑤-⑥-|
30
口口口口 |--①-|
口口口口 |②-③-|
口⑤⑥口 |④---|
①②③④ |⑤-⑥-|
31
②口口② |--①-|
①口口口 |--②-|
③口口③ |----|
口口口口 |③---|
32
口口口口 |--①-|
口②③口 |--②-|
口④⑤口 |③---|
口口①① |④-⑤-|
33
③口口② |--①-|
⑤口口④ |--②-|
口口口⑥ |③-④-|
①口口口 |⑤-⑥-|
34
口⑤口口 |--①-|
⑤③口④ |--②-|
口口②口 |③---|
口①①口 |④-⑤-|
35
口口口口 |----|
口口③口 |----|
口②口口 |--①-|
①口口口 |②-③-|
36
口口口① |①---|
②口⑤口 |②---|
②口口口 |③---|
口④口③ |④-⑤-|
37
口口口口 |--①-|
口①口口 |②-③-|
口口②⑤ |----|
③口口④ |④-⑤-|
38
口口⑦口 |①-②-|
④⑥口① |③-④-|
③口⑤口 |--⑤-|
②口口口 |⑥-⑦-|
39
③④⑤口 |--①-|
口口口口 |②---|
①口口口 |--③-|
口②口口 |④-⑤-|
40
⑤口口⑤ |①-②-|
口③②① |③-④-|
④口口④ |--⑤-|
口⑥口口 |--⑥-|
41
口②③口 |①---|
②口①③ |--②-|
口口口口 |--③-|
口口口口 |----|
42
①口口① |①---|
口口口口 |②---|
②⑤⑥② |③-④-|
口③④口 |⑤-⑥-|
43
①①②② |----|
口口口口 |①-②-|
口口口口 |----|
口口口口 |----|
44
口口口口 |----|
口口口口 |----|
口口口口
口口口口
45
⑤口口⑤ |①---|
①口④① |②---|
口③口口 |③-④-|
口②②口 |--⑤-|
46
口口口口 |--①-|
①口口① |--②-|
②口口② |--③-|
③口口③ |----|
47
口口口口 |①-②-|
口⑥⑤口 |③-④-|
口④③口 |⑤-⑥-|
⑦②①⑦ |--⑦-|
48
③口口③ |--①-|
②口口② |--②-|
①口口① |--③-|
口口口口 |----|
49
口①①口 |①---|
口⑤④口 |②-③-|
口③②口 |④-⑤-|
⑥口口⑥ |--⑥-|
50
③④④③ |--①-|
②口口② |--②-|
①口口① |--③-|
口口口口 |--④-|
51
口口口口 |--①-|
口口⑤口 |②-③-|
口④③口 |④-⑤-|
⑥②①⑥ |--⑥-|
52
①口口① |--①-|
②口口② |--②-|
③口口③ |--③-|
口口口口 |----|
53
口①④口 |①---|
口口①口 |②---|
⑤②口⑤ |③-④-|
⑤③②⑤ |--⑤-|
54
①口口① |----|
①口口① |--①-|
口口口口 |----|
口口②口 |--②-|
55
口口⑥口 |①-②-|
口⑤④口 |③-④-|
口③②口 |⑤-⑥-|
⑦①口⑦ |--⑦-|
56
③口口③ |--①-|
②口口② |--②-|
①口口① |--③-|
口口口口 |----|
57
口口口口 |①---|
⑥②⑤⑥ |②-③-|
口①①口 |④-⑤-|
口④③口 |--⑥-|
58
口②②口 |--①-|
口③③口 |--②-|
①④④① |--③-|
口口口口 |--④-|
59
口⑥⑥口 |--①-|
口口口⑤ |②-③-|
④口口③ |④-⑤-|
②口口① |--⑥-|
60
口口口口 |--①-|
口④①口 |②-③-|
口②⑤口 |--④-|
口⑥③口 |⑤-⑥-|
61
口口口口 |----|
口口①口 |①---|
②口口口 |②---|
口口③口 |③---|
62
③④⑤口 |①---|
口口口② |②---|
口①口口 |--③-|
口口口口 |④-⑤-|
63
口口口口 |----|
口口口口 |①---|
①口口口 |②---|
③口②口 |③---|
64
口⑤④③ |①---|
口②口口 |②---|
口口口① |--③-|
口口口口 |④-⑤-|
65
口口口口 |----|
口口③口 |①---|
口口口① |②---|
口②口口 |③---|
66
口口口口 |①---|
①口口② |②---|
口口口口 |--③-|
③④⑤口 |④-⑤-|
67
口③③口 |----|
口③③① |①---|
口②口口 |②---|
口口口口 |--③-|
68
①口口① |----|
①口口① |--①-|
口口口口 |----|
口口口口 |----|
69
①口口① |--①-|
口口②口 |----|
口③口口 |②---|
口口口口 |③---|
70
口口口口 |①---|
②口口② |--②-|
②口口② |----|
口口①口 |----|

accuracy: 100%
最終更新:2024年07月20日 02:03