アットウィキロゴ
Music-U
Qrispy Joybox feat.mao

EXTREME

Level: 8
BPM: 152
Notes: 675

1
口口口口 |----|
口口②口 |----|
口口口口 |--①-|
口①口口 |--②-|
2
①①口⑤ |①---|
⑥④口口 |②-③-|
口②口⑤ |④-⑤-|
口口③口 |--⑥-|
3
口③③口 |--①-|
口口口口 |--②-|
口①口口 |--③-|
②④口口 |--④-|
4
口⑥⑤④ |①-②-|
①口口③ |③-④-|
口⑦⑦口 |⑤-⑥-|
口口②口 |--⑦-|
5
④口口④ |--①-|
①口口② |②-③-|
口⑤⑥口 |--④-|
口③③口 |⑤-⑥-|
6
口⑥②口 |①---|
②④口⑥ |②-③-|
⑦口口① |④-⑤-|
口③⑤① |⑥-⑦-|
7
②口口② |--①-|
⑤口口⑤ |②-③-|
口③口① |--④-|
⑥口④口 |⑤-⑥-|
8
②⑥②⑥ |--①-|
口③口口 |②-③-|
④①⑦口 |④-⑤-|
口⑤口口 |⑥-⑦-|
9
②口②口 |--①-|
口口口口 |②-③-|
口③口①
口口口口

口口口⑤
⑤口口口
④口口⑥ |--④-|
口④⑥口 |⑤-⑥-|
10
口口口口 |①-②-|
口②⑤口 |③-④-|
⑦④①⑦ |⑤-⑥-|
③⑧⑥③ |⑦-⑧-|
11
口⑦①口 |①-②-|
③⑥⑦③ |③-④-|
⑥口②⑤ |--⑤-|
④口⑤口 |⑥-⑦-|
12
③口口③ |①-②-|
⑦⑤口⑦ |③-④-|
口口②口 |⑤-⑥-|
④①⑧⑥ |⑦-⑧-|
13
口④口① |①-②-|
口口口口 |③-④-|
③②口③
口口口口

⑥口口⑥
口口⑦口
口⑦口口 |--⑤-|
口⑤⑤口 |⑥-⑦-|
14
口②口口 |①-②-|
④口口口 |③-④-|
口口口①
③口口③

口口⑥⑧
口口口口
⑦口口⑦ |⑤-⑥-|
口⑤口口 |⑦-⑧-|
15
口口口口 |①-②-|
③①口③ |③-④-|
口口口口
口④②口

口⑦口口
口口⑥口
口⑤口口 |--⑤-|
⑤口⑦⑥ |⑥-⑦-|
16
③口④③ |①-②-|
⑦⑧⑧⑦ |③-④-|
①⑤口② |⑤-⑥-|
⑧口⑥⑧ |⑦-⑧-|
17
④口口⑤ |--①-|
口口口口 |②-③-|
②④⑤② |--④-|
口①③口 |⑤---|
18
⑤②②⑤ |①-②-|
②①③口 |--③-|
②④④口 |④---|
④口口④ |⑤---|
19
④④⑤⑤ |①---|
口③口③ |②-③-|
口③②③ |--④-|
口①①口 |⑤---|
20
口口⑥⑥ |①-②-|
④⑤口② |--③-|
④口③② |④---|
口①口口 |⑤-⑥-|
21
①①口口 |--①-|
⑥口③口 |--②-|
口②口④ |③-④-|
⑥口⑤口 |⑤-⑥-|
22
口口①口 |--①-|
口④②① |--②-|
③口口⑤ |③---|
口③⑤口 |④-⑤-|
23
口③④口 |--①-|
②口口⑤ |--②-|
口①①口 |③-④-|
⑥口口⑥ |⑤-⑥-|
24
口口⑤① |--①-|
③口②口 |--②-|
口④①⑤ |③---|
口③口口 |④-⑤-|
25
口①口口 |--①-|
口口口口 |--②-|
①口口口
②口口②

③⑤④③
口口口口
口口口口 |--③-|
口口口口 |④-⑤-|
26
⑤口⑤口 |--①-|
③口口① |--②-|
口④口口 |③---|
③口②① |④-⑤-|
27
③③③③ |--①-|
口①口① |--②-|
②口②口 |--③-|
④④④④ |--④-|
28
口口口口 |--①-|
①口③口 |②-③-|
口②口口
口口口口

口口口口
⑦口口口
口口口④ |④-⑤-|
⑦⑥⑤口 |⑥-⑦-|
29
⑥口口⑤ |--①-|
口③④① |--②-|
②⑥口口 |③-④-|
口口口① |⑤-⑥-|
30
口⑤口⑤ |--①-|
③口④① |--②-|
口口②口 |③---|
③口口① |④-⑤-|
31
②口②口 |--①-|
口②口② |--②-|
③①③① |----|
口③口③ |③---|
32
口口口② |①-②-|
①口②口 |--③-|
口口口③
口口口口

口⑥口口
⑥口口口
口④口口 |④---|
④口⑤口 |⑤-⑥-|
33
口口①口 |--①-|
口②口① |--②-|
口口口口
口口口口

口口口口
⑥口③⑥
口口口口 |③-④-|
口⑤④口 |⑤-⑥-|
34
口⑤⑤口 |--①-|
⑤①③⑤ |--②-|
口口口② |③---|
③④④① |④-⑤-|
35
口口口口 |----|
口②③口 |----|
口口口口 |--①-|
①口口口 |②-③-|
36
①⑤④① |①---|
⑥口口③ |②---|
②口口② |③-④-|
口口口口 |⑤-⑥-|
37
①口口口 |--①-|
口①口② |②-③-|
③⑤②口 |----|
口③④口 |④-⑤-|
38
①⑦⑦④ |①-②-|
④口⑥① |③-④-|
口⑤③口 |--⑤-|
口②口口 |⑥-⑦-|
39
口口⑤口 |--①-|
口口口口 |②---|
④口口口 |--③-|
①③口② |④-⑤-|
40
⑤口口⑤ |①-②-|
①口②口 |③-④-|
口④④口 |--⑤-|
⑥口口③ |--⑥-|
41
②③①口 |①---|
口①②③ |--②-|
③②④口 |--③-|
口口③② |--④-|
42
⑥⑥①口 |①---|
①口⑤⑤ |②---|
④④口② |③-④-|
口②③③ |⑤-⑥-|
43
口口②口 |----|
②①口口 |①-②-|
口口①② |----|
口②口口 |----|
44
口口口口 |--①-|
口口②口 |--②-|
口口口口
口①口口
45
①①口口 |①---|
②口口③ |②-③-|
口口口③
②口①①

⑥口⑥⑤
口④⑥口
④口⑤口 |④-⑤-|
口口口口 |--⑥-|
46
口口口③ |--①-|
②②口口 |--②-|
④①③③ |--③-|
②①口① |--④-|
47
⑧①④⑧ |①-②-|
③⑤口③ |③-④-|
口口⑥口 |⑤-⑥-|
⑦口②⑦ |⑦-⑧-|
48
口①口口 |--①-|
口口③① |②-③-|
③口口口
口②口口

④⑤⑤④
口口口口
口④④口 |--④-|
口口口口 |--⑤-|
49
⑤⑥⑥④ |①---|
⑥③②④ |②-③-|
⑤口口② |④-⑤-|
③①①口 |--⑥-|
50
④口口③ |--①-|
口②④③ |--②-|
②④③① |--③-|
②①①④ |--④-|
51
⑦④口口 |--①-|
②②口⑤ |②-③-|
口口③口 |④-⑤-|
①⑥⑥口 |⑥-⑦-|
52
口口口① |--①-|
⑤①③⑥ |②-③-|
③口口④ |--④-|
口④口② |⑤-⑥-|
53
①口口① |①---|
口②③口 |②-③-|
口①①口
②口③口

⑥⑥⑤口
④口口⑤
④口口⑥ |④-⑤-|
口口口⑥ |--⑥-|
54
口口③③ |--①-|
④④⑤⑤ |②-③-|
③⑥②口 |--④-|
③①口口 |⑤-⑥-|
55
①③口④ |①-②-|
口口口口 |③-④-|
口口口③
口口②口

⑦口⑦口
口⑧口⑧
⑧口⑧口 |⑤-⑥-|
口⑤口⑥ |⑦-⑧-|
56
④②口② |--①-|
③口③⑤ |②-③-|
④③口③ |--④-|
①口口⑤ |--⑤-|
57
⑥④⑤① |①---|
②④⑥口 |②-③-|
⑥口③⑤ |④-⑤-|
①②③口 |--⑥-|
58
口②④② |--①-|
④③口① |--②-|
口①②④ |--③-|
③④③① |--④-|
59
②②口口 |--①-|
口⑦⑦③ |②-③-|
①④口口 |④-⑤-|
⑥口⑤⑥ |⑥-⑦-|
60
口③口③ |--①-|
①口口口 |②-③-|
口口②①
口②口口

口口④口
口⑤口④
⑤口口⑥ |--④-|
口口⑥口 |⑤-⑥-|
61
口口口口 |①-②-|
口⑤②口 |③-④-|
⑦①④⑦ |⑤-⑥-|
③⑥⑧③ |⑦-⑧-|
62
口①⑦口 |①-②-|
③⑦⑥③ |③-④-|
⑤②口⑥ |--⑤-|
口⑤口④ |⑥-⑦-|
63
③口口③ |①-②-|
⑦口⑤⑦ |③-④-|
口②口口 |⑤-⑥-|
⑥⑧①④ |⑦-⑧-|
64
①口④口 |①-②-|
口口口口 |③-④-|
③口②③
口口口口

⑥口口⑥
口⑦口口
口口⑦口 |--⑤-|
口⑤⑤口 |⑥-⑦-|
65
口口②口 |①-②-|
口口口④ |③-④-|
①口口口
③口口③

⑧⑥口口
口口口口
⑦口口⑦ |⑤-⑥-|
口口⑤口 |⑦-⑧-|
66
口口口口 |①-②-|
③口①③ |③-④-|
口口口口
口②④口

口口⑦口
口⑥口口
口口⑤口 |--⑤-|
⑥⑦口⑤ |⑥-⑦-|
67
③④口③ |①-②-|
⑦⑧⑧⑦ |③-④-|
②口⑤① |⑤-⑥-|
⑧⑥口⑧ |⑦-⑧-|
68
⑤口口④ |--①-|
口口口口 |②-③-|
②⑤④② |--④-|
口③①口 |⑤---|
69
⑤②②⑤ |①-②-|
口③①② |--③-|
口④④② |④---|
④口口④ |⑤---|
70
口①①口 |①---|
③口口③ |②-③-|
③口口③ |----|
③②②③ |----|

accuracy: 100%
最終更新:2024年07月20日 02:03