アットウィキロゴ
Homesick Pt.2&3
ORANGENOISE SHORTCUT

BASIC

Level: 3
BPM: 178
Notes: 195

1
口口口口 |----|
口口口口 |----|
口口口口 |----|
口口口口 |----|
2
口②①口 |①---|
口口口口 |----|
口口口口 |②---|
口口口口 |----|
3
口口口口 |①---|
口②①口 |----|
口口口口 |②---|
口口口口 |----|
4
口口口口 |①---|
口口口口 |----|
口②①口 |②---|
口口口口 |----|
5
口口口口 |①---|
口口口口 |----|
口口口口 |②---|
口②①口 |----|
6
口口口口 |①---|
口口②① |----|
口口口口 |②---|
口口口口 |----|
7
口口口口 |①---|
②①口口 |----|
口口口口 |②---|
口口口口 |----|
8
口口口口 |①---|
口口口口 |----|
口②①口 |②---|
口口口口 |----|
9
①口口① |①---|
口口口口 |----|
口口口口 |----|
口口口口 |----|
10
口口口口 |①---|
口③②① |②---|
口口口口 |③---|
口口口口 |----|
11
口口口口 |①---|
口口口口 |②---|
口③②① |③---|
口口口口 |----|
12
口口口口 |①---|
①②③口 |②---|
口口口口 |③---|
口口口口 |----|
13
②口口② |①---|
口口口口 |----|
①口口① |②---|
口口口口 |----|
14
口口口口 |①---|
口②①口 |②---|
口④③口 |③---|
口口口口 |④---|
15
口口口口 |①---|
口②②口 |----|
口口口口 |②---|
口口①口 |----|
16
口①②③ |①---|
口口口口 |②---|
口口口口 |③---|
口口口口 |----|
17
口口口口 |①---|
①口口① |----|
口口口口 |②---|
口②②口 |----|
18
口口口① |①---|
口口口② |②---|
口口口③ |③---|
口口口口 |----|
19
①口口口 |①---|
②口口口 |②---|
③口口口 |③---|
口口口口 |----|
20
口口口口 |①---|
口口口口 |②---|
口④③口 |③---|
口②①口 |④---|
21
口口口口 |①---|
口口①口 |----|
口口口口 |----|
口口口口 |----|
22
口口口口 |①---|
③口口口 |②---|
②口口口 |③---|
①口口口 |----|
23
口口口口 |①---|
口口口③ |②---|
口口口② |③---|
口口口① |----|
24
口①①口 |①---|
口②②口 |----|
口口口口 |②---|
口口口口 |----|
25
口口口口 |①---|
口口口口 |----|
口①①口 |②---|
口②②口 |----|
26
口口口口 |①---|
①②③口 |②---|
口口口口 |③---|
口口口口 |----|
27
口③②① |①---|
口口口口 |②---|
口口口口 |③---|
口口口口 |----|
28
口口口口 |①---|
口口口口 |②---|
口③④口 |③---|
口①②口 |④---|
29
口③口口 |①---|
口①②口 |②---|
口口口口 |③---|
口口口口 |----|
30
口口口口 |①---|
口口口口 |②---|
④③②① |③---|
口口口口 |④---|
31
口④③口 |①---|
口②①口 |②---|
口口口口 |③---|
口口口口 |④---|
32
口口口口 |----|
口口口口 |----|
口口口口 |①---|
口口口① |----|
33
口口口口 |①---|
口②口口 |----|
口口①口 |②---|
口口口口 |----|
34
口①①口 |①---|
口口口口 |----|
口②②口 |②---|
口口口口 |----|
35
口口口口 |①---|
④③②① |②---|
口口口口 |③---|
口口口口 |④---|
36
口口口口 |----|
口口口口 |----|
口口口口 |①---|
①口口口 |----|
37
口口口口 |①---|
口口②口 |----|
口①口口 |②---|
口口口口 |----|
38
口①①口 |----|
口口口口 |①---|
口口口口 |----|
口口口口 |----|
39
口口口口 |----|
口口口口 |----|
口口口口 |----|
口口口口 |----|
40
口口口口 |①---|
②口口① |----|
②口口① |②---|
口口口口 |----|
41
口口①口 |①---|
口②口口 |②---|
口口③口 |③---|
口口口口 |----|
42
口口口口 |①---|
①口口② |----|
①口口② |②---|
口口口口 |----|
43
口①口口 |①---|
口口②口 |②---|
口③口口 |③---|
口口口口 |----|
44
②口口① |①---|
④口口③ |②---|
口口口口 |③---|
口口口口 |④---|
45
口口口口 |①---|
口口口口 |②---|
口②①口 |③---|
口④③口 |④---|
46
口②②口 |①---|
口口口口 |----|
口口口① |②---|
口口口口 |----|
47
口口口口 |①---|
口口口口 |②---|
①②③口 |③---|
口口口口 |----|
48
口口口口 |①---|
④口口③ |②---|
口口口口 |③---|
②口口① |④---|
49
口口口口 |----|
口口口口 |----|
口口口口 |----|
口口口口 |----|
50
口口口③ |①---|
口口②口 |②---|
口口口① |③---|
口口口口 |----|
51
③口口口 |①---|
口②口口 |②---|
①口口口 |③---|
口口口口 |----|
52
口口口口 |①---|
口口口口 |②---|
④③②① |③---|
口口口口 |④---|
53
口口①口 |①---|
口②口口 |②---|
口口③口 |③---|
口口口口 |----|
54
口口口口 |①---|
③口口④ |②---|
①口口② |③---|
口口口口 |④---|
55
口①口口 |①---|
口②口口 |②---|
口③口口 |③---|
口④口口 |④---|
56
口④④口 |①---|
口口口③ |②---|
②口口口 |③---|
口口口① |--④-|
57
口口口口 |----|
口口口口 |----|
口口口口 |----|
口口口口 |----|
58
口口口口 |①---|
口②口口 |②---|
①口③口 |③---|
口口口口 |----|
59
口口口口 |①---|
口口②口 |②---|
口③口① |③---|
口口口口 |----|
60
口口口口 |①---|
口口口口 |②---|
口口口口 |③---|
④③②① |④---|
61
口②②口 |①---|
口口口口 |----|
①口口① |②---|
口口口口 |----|
62
②口口① |①---|
口④③口 |②---|
口口口口 |③---|
口口口口 |④---|
63
口口口口 |①---|
口口口口 |②---|
②口口① |③---|
口④③口 |④---|
64
③口口③ |①---|
口②②口 |----|
口①①口 |②---|
口口口口 |--③-|
65
口口口口 |----|
①口口① |--①-|
②口口② |----|
口口口口 |--②-|

accuracy: 100%
最終更新:2024年07月20日 01:58