アットウィキロゴ
Homesick Pt.2&3
ORANGENOISE SHORTCUT

ADVANCED

Level: 6
BPM: 178
Notes: 346

1
口口口口 |----|
口口口口 |----|
口口口口 |----|
口口口口 |----|
2
口口口口 |①---|
①口口① |----|
口口口口 |----|
口口口口 |----|
3
口①①口 |----|
口口口口 |----|
口口口口 |--①-|
口口口口 |----|
4
口口口口 |①---|
①口口① |----|
口口口口 |----|
口口口口 |----|
5
口口口口 |----|
口口口口 |----|
口①①口 |--①-|
口口口口 |----|
6
口口口口 |①---|
①口口① |----|
口口口口 |----|
口口口口 |----|
7
口口口口 |----|
口口口口 |----|
口口口口 |--①-|
口①①口 |----|
8
口口口口 |①---|
①口口① |----|
口②②口 |----|
口口口口 |--②-|
9
①②③④ |--①-|
口⑤⑤口 |②-③-|
口口口口 |④---|
口口口口 |⑤---|
10
口口口口 |①---|
⑥⑤④③ |②---|
②口口② |③-④-|
①口口① |⑤-⑥-|
11
口口口口 |----|
口③③口 |①---|
口②②口 |②---|
口①①口 |③---|
12
①口口① |①---|
②口口② |②---|
⑥⑤④③ |③-④-|
口口口口 |⑤-⑥-|
13
口口口口 |--①-|
②口口② |--②-|
口口口口 |----|
口①①口 |----|
14
口①①口 |①---|
口口口口 |②---|
口②②口
口口口口

口口⑤⑤
口口口口
口口口口 |③-④-|
③口口④ |--⑤-|
15
口口口口 |--①-|
①①口口 |--②-|
口口②② |--③-|
口③④⑤ |④-⑤-|
16
口①②口 |①-②-|
⑦③④⑦ |③-④-|
口⑤⑥口 |⑤-⑥-|
口口口口 |--⑦-|
17
口口口口 |--①-|
口口口口 |--②-|
①口口① |----|
②③③② |--③-|
18
口口③口 |----|
口②口口 |--①-|
口口①口 |②-③-|
④④口口 |--④-|
19
口口③口 |----|
②口口① |①---|
②④口① |②---|
口口口口 |③-④-|
20
②⑦⑦① |--①-|
④口口③ |②-③-|
⑥口口⑤ |④-⑤-|
口口口口 |⑥-⑦-|
21
口口口口 |--①-|
口口口口 |----|
口①①口 |----|
口口口口 |----|
22
⑤④口⑤ |①---|
口口③口 |--②-|
口②口口 |③-④-|
①口口① |--⑤-|
23
口口口口 |--①-|
①口口① |--②-|
②口口② |--③-|
③口口③ |----|
24
口①①⑤ |①---|
口口③⑤ |②-③-|
口②口口 |--④-|
④④口口 |--⑤-|
25
口口口口 |--①-|
口①口口 |②---|
口口②口 |----|
口口口口 |----|
26
口③口口 |①---|
①口④② |②---|
①⑤口② |③-④-|
口口⑥口 |⑤-⑥-|
27
口口口口 |--①-|
②②口口 |--②-|
③③口口 |--③-|
①①口口 |----|
28
④③②① |①-②-|
⑦口口⑦ |③-④-|
口⑥⑤口 |⑤-⑥-|
口口口口 |--⑦-|
29
口口口口 |--①-|
口口口口 |----|
口口口口 |----|
①口口① |----|
30
④口口⑤ |--①-|
⑥口口⑦ |②-③-|
口①②③ |④-⑤-|
口口口口 |⑥-⑦-|
31
⑦口口⑦ |①-②-|
口⑤⑥口 |③-④-|
口③④口 |⑤-⑥-|
口①②口 |--⑦-|
32
口口口口 |----|
口口口口 |①---|
口口口口 |②---|
①②③口 |③---|
33
口口口口 |①---|
口口口口 |②---|
④③②① |③---|
口口口口 |④---|
34
口口①口 |①---|
口②③口 |②-③-|
口④口口 |--④-|
口⑤口口 |--⑤-|
35
口口口口 |----|
口口口口 |----|
口口口口 |----|
口口口口 |----|
36
口口口口 |----|
口口口口 |①---|
口口口口 |②---|
③②①口 |③---|
37
口口口口 |①---|
口口口口 |②---|
①②③④ |③---|
口口口口 |④---|
38
口①①口 |----|
口①①口 |①---|
口口口口 |----|
口口口口 |----|
39
口口口口 |----|
口口口口 |----|
口口口口 |----|
口口口口 |----|
40
①口口① |①---|
口⑥⑥口 |--②-|
⑤④③② |③-④-|
口口口口 |⑤-⑥-|
41
口口口口 |--①-|
口口口口 |----|
口口口口 |----|
口①①口 |----|
42
口口口口 |①---|
①口口② |②---|
③④⑤⑥ |③-④-|
①口口② |⑤-⑥-|
43
口①①口 |--①-|
口口口口 |----|
口口口口 |----|
口口口口 |----|
44
口口口口 |----|
④③②① |----|
口口口口 |①-②-|
口口口口 |③-④-|
45
口口④口 |--①-|
口③口口 |--②-|
口②②口 |--③-|
口①①口 |④---|
46
口③口口 |①---|
口口②口 |--②-|
口口口口 |③---|
①口口① |----|
47
口口④口 |①---|
口③口口 |②---|
口口②口 |③---|
口①口口 |④---|
48
口口口口 |①---|
①口口① |②---|
⑥⑤④③ |③-④-|
②口口② |⑤-⑥-|
49
①②③④ |--①-|
口口口口 |②-③-|
口⑤⑤口 |④-⑤-|
口口口口 |----|
50
⑤④③② |①---|
①⑥⑥① |--②-|
口口口口 |③-④-|
口口口口 |⑤-⑥-|
51
口口口口 |--①-|
口口口口 |--②-|
③①①④ |--③-|
口②②口 |④---|
52
口②②口 |①---|
⑥⑤④③ |②---|
口①①口 |③-④-|
口口口口 |⑤-⑥-|
53
①口口① |--①-|
口口⑤口 |--②-|
口④口口 |--③-|
②口③② |④-⑤-|
54
④②口④ |----|
口口口口 |①---|
①口③① |②-③-|
口口口口 |--④-|
55
口口口口 |--①-|
①口口① |--②-|
②口口② |--③-|
③④⑤口 |④-⑤-|
56
口⑤⑥口 |①-②-|
口③④口 |③-④-|
⑦①②⑦ |⑤-⑥-|
口口口口 |--⑦-|
57
口口口口 |----|
口口口口 |----|
口口口口 |--①-|
①②③口 |②-③-|
58
②⑤⑤③ |①---|
口口口口 |--②-|
④口口口 |③---|
口口口① |④-⑤-|
59
口口口口 |--①-|
口①①口 |--②-|
口②②口 |--③-|
口⑤④③ |④-⑤-|
60
口③④口 |①---|
②⑤⑥② |②---|
口口口口 |③-④-|
①口口口 |⑤-⑥-|
61
①口口① |--①-|
口⑤口口 |--②-|
②口④② |--③-|
口③口口 |④-⑤-|
62
④口②④ |----|
口口口口 |①---|
口③口口 |②-③-|
①口口① |--④-|
63
口口口口 |--①-|
①口口① |--②-|
②口口② |--③-|
口⑤④③ |④-⑤-|
64
⑦⑥⑤⑦ |①-②-|
口④③口 |③-④-|
口②①口 |⑤-⑥-|
口口口口 |--⑦-|
65
口口口口 |--①-|
①③③① |--②-|
②口口② |--③-|
④④④④ |--④-|

accuracy: 100%
最終更新:2024年07月20日 01:58