アットウィキロゴ
Homesick Pt.2&3
ORANGENOISE SHORTCUT

EXTREME

Level: 8
BPM: 178
Notes: 546

1
口口口口 |----|
口口口口 |----|
口口口口 |----|
口口口口 |----|
2
口口口③ |①---|
口④⑤口 |②---|
口口②口 |③---|
①口口口 |④-⑤-|
3
口口⑤口 |①---|
③口口口 |②---|
口①口口 |③-④-|
④口②④ |⑤---|
4
③口口口 |①---|
口⑤④口 |②---|
①②口① |③---|
口口口口 |④-⑤-|
5
口口③口 |①---|
口口⑤③ |②---|
④口①口 |③-④-|
口②口⑤ |--⑤-|
6
口口口③ |①---|
口④⑤口 |②---|
口口②口 |③---|
①口口口 |④-⑤-|
7
口③口口 |①---|
③⑤口口 |②---|
口①口④ |③-④-|
⑤口②口 |--⑤-|
8
口口口口 |①---|
⑤口②⑥ |②---|
口⑤⑥口 |③-④-|
口③④① |⑤-⑥-|
9
①②③④ |--①-|
口⑤⑤口 |②-③-|
口口口口 |④---|
口口口口 |⑤---|
10
①③口口 |①-②-|
口口口口 |③-④-|
②④口口
口口口口

⑧口⑤⑧
口⑥口口
口口口口 |⑤-⑥-|
口口⑦口 |⑦-⑧-|
11
口②④口 |--①-|
口⑤口口 |②-③-|
①③口口 |④-⑤-|
口口⑥口 |⑥---|
12
①③⑤口 |①-②-|
⑧⑥⑧口 |③-④-|
②④口口 |⑤-⑥-|
口⑧⑦⑧ |⑦-⑧-|
13
②①②① |--①-|
口④口⑤ |--②-|
①②①② |--③-|
口口③口 |④-⑤-|
14
④口②④ |----|
口④④口 |①---|
口①①口 |②-③-|
口③口口 |--④-|
15
口口⑤口 |--①-|
①④口① |--②-|
①②②① |--③-|
②口③② |④-⑤-|
16
①③⑦⑥ |①-②-|
口口口⑦ |③-④-|
②④⑤口 |⑤-⑥-|
口口口口 |--⑦-|
17
⑤①⑤口 |--①-|
①口②口 |②-③-|
口②口③ |--④-|
口④③④ |--⑤-|
18
口口口口 |----|
口③口口 |--①-|
口口②口 |②-③-|
①口④④ |--④-|
19
③口口② |----|
①口②口 |①---|
④①口口 |②---|
口口口口 |③-④-|
20
口口口口 |--①-|
口⑤③① |②-③-|
口⑦⑦口 |④-⑤-|
口⑥④② |⑥-⑦-|
21
口①①④ |--①-|
口口④口 |②---|
②口口③ |--③-|
口口③口 |--④-|
22
⑤口④口 |①---|
①⑤口口 |--②-|
口③口口 |③-④-|
口①口② |--⑤-|
23
口口口③ |--①-|
口口③口 |--②-|
②口口① |--③-|
口②①口 |----|
24
④①①④ |①---|
①⑤⑤① |②-③-|
②④④③ |--④-|
②⑤⑤③ |--⑤-|
25
③①②⑤ |--①-|
①口口② |②---|
④口口⑥ |③-④-|
口口口口 |⑤-⑥-|
26
口④口口 |①---|
口①①⑦ |②-③-|
⑥口③口 |④-⑤-|
口②口⑤ |⑥-⑦-|
27
⑥口口口 |①-②-|
口⑥②口 |③-④-|
⑤③口口 |--⑤-|
①⑤④口 |--⑥-|
28
口②口① |①-②-|
④口口① |③-④-|
口②③口
④口口③

⑦口⑦口
口⑦⑤⑦
⑥口口口 |⑤-⑥-|
口⑥⑤口 |--⑦-|
29
口①口① |--①-|
口口口口 |--②-|
口①口① |③---|
②④④③ |④---|
30
③⑤口⑧ |①-②-|
①口⑦① |③-④-|
②④⑥口 |⑤-⑥-|
口口口口 |⑦-⑧-|
31
口⑦⑦口 |①-②-|
②③口④ |③-④-|
⑦口口⑦ |⑤-⑥-|
①口⑥⑤ |--⑦-|
32
口口口口 |----|
口③口口 |①---|
口口②口 |②---|
口①口口 |③---|
33
口④口① |①---|
口口口口 |②---|
②口口口 |③---|
口口③口 |④---|
34
②④①④ |①---|
口⑤③① |②-③-|
口②④口 |--④-|
⑤口⑤③ |--⑤-|
35
口口④口 |①---|
口口口口 |②---|
③⑤⑤口 |③-④-|
口①口② |--⑤-|
36
口口口③ |----|
口②③口 |①---|
②口口① |②---|
口口①口 |③---|
37
口④①口 |①---|
④口口① |②---|
口②③口 |③---|
②口口③ |④---|
38
①口口① |----|
口①①口 |①---|
②口口口 |②---|
口口口口 |----|
39
口口口口 |①---|
口口口口 |----|
口口口口 |②---|
口①②口 |----|
40
①⑥①口 |①---|
②口⑥③ |--②-|
口①口① |③-④-|
④口口⑤ |⑤-⑥-|
41
口口口② |--①-|
口③口口 |--②-|
口①④口 |--③-|
口⑤①口 |④-⑤-|
42
口⑥⑥口 |①---|
③口②② |②---|
口口口④ |③-④-|
⑤口①① |⑤-⑥-|
43
②口口② |--①-|
口口口③ |--②-|
④①①口 |--③-|
口口口⑤ |④-⑤-|
44
口③⑥⑥ |①---|
③口②④ |②---|
⑤⑤④口 |③-④-|
①①口口 |⑤-⑥-|
45
③口④口 |--①-|
口口口④ |--②-|
口③口口 |--③-|
①①②② |④---|
46
口②口① |①---|
②①③口 |--②-|
②口①③ |③---|
①④④③ |--④-|
47
口③③口 |--①-|
口②②口 |--②-|
④①①④ |--③-|
口口口口 |--④-|
48
口口口口 |①---|
①口②口 |②---|
口口口口
口①口②

口口口口
⑥口口③
口⑤④口 |③-④-|
口口口口 |⑤-⑥-|
49
①②③④ |--①-|
口⑤⑤口 |②-③-|
口⑤⑤口 |④-⑤-|
口口口口 |----|
50
②②口口 |①---|
①口口① |--②-|
口口口口
①口口①

口口③③
口⑥口口
④④⑤⑤ |③-④-|
⑥口口口 |⑤-⑥-|
51
④口口口 |--①-|
口口①② |--②-|
口③口口 |--③-|
口①②⑤ |④-⑤-|
52
口口①口 |①---|
①②口② |②---|
口口口①
②①②口

口口口口
⑥口③口
口④⑤口 |③-④-|
口口口口 |⑤-⑥-|
53
①①①① |--①-|
⑤口口⑤ |--②-|
②④④② |--③-|
③②②③ |④-⑤-|
54
④③②④ |----|
口②③口 |①---|
口④④口 |②-③-|
口①①口 |--④-|
55
口③④⑤ |--①-|
①口口① |--②-|
②口口② |--③-|
①②②① |④-⑤-|
56
口⑦⑦口 |①-②-|
①③口⑥ |③-④-|
口口口口 |⑤-⑥-|
②④⑤口 |--⑦-|
57
口口口口 |----|
口③口口 |----|
口口口② |--①-|
①口口口 |②-③-|
58
①②①口 |①---|
①口①口 |--②-|
①口①口
口口口口

⑥口⑥③
口口口口
口⑥口⑥ |③-④-|
④口⑤口 |⑤-⑥-|
59
口④口⑤ |--①-|
②①②① |--②-|
①口①口 |--③-|
③②口② |④-⑤-|
60
口口口口 |①---|
②①②① |②---|
①②①②
口口口口

口口口口
口口口⑥
口口口口 |③-④-|
③⑤口④ |⑤-⑥-|
61
①①①① |--①-|
⑤②②④ |--②-|
②③④② |--③-|
③⑤口口 |④-⑤-|
62
④②②④ |----|
口口口口 |①---|
③口口③ |②-③-|
口口①① |--④-|
63
口③④⑤ |--①-|
口①①口 |--②-|
口口口口 |--③-|
口②②口 |④-⑤-|
64
⑦口口⑦ |①-②-|
①③口⑥ |③-④-|
口⑦口口 |⑤-⑥-|
②④⑤口 |--⑦-|
65
口③③口 |--①-|
④口①④ |--②-|
②④④② |--③-|
①②②① |--④-|

accuracy: 100%
最終更新:2024年07月20日 01:58