アットウィキロゴ
nalca
onoken

BASIC

Level: 4
BPM: 136
Notes: 251

1
口口口口 |----|
口口口口 |----|
口口口口 |----|
口口口口 |----|
2
①②③④ |①---|
口口口口 |②---|
口口口口 |③---|
口口口口 |④---|
3
口口口口 |①---|
④③②① |②---|
口口口口 |③---|
口口口口 |④---|
4
口口口口 |①---|
口口口口 |②---|
①②③④ |③---|
口口口口 |④---|
5
口口口口 |①---|
口口口口 |②---|
口口口口 |③---|
④③②① |④---|
6
①②③④ |①---|
口口口口 |②---|
口口口口 |③---|
口口口口 |④---|
7
口口口口 |①---|
④③②① |②---|
口口口口 |③---|
口口口口 |④---|
8
口口口口 |①---|
口口口口 |②---|
①②③④ |③---|
口口口口 |④---|
9
口口口口 |①---|
口口口口 |②---|
口口口口 |③---|
④③②① |④---|
10
口④④口 |①---|
口口口口 |②---|
①②③口 |③---|
口口口口 |④---|
11
口口口口 |----|
口口口口 |----|
口口口口 |----|
口口口口 |----|
12
口口口口 |----|
口口口口 |----|
口口口口 |----|
口口口口 |----|
13
④口口② |①--②|
口口口口 |----|
③口口① |③--④|
口口口口 |----|
14
口口②口 |①--②|
口③③口 |----|
口口①口 |③---|
④口口④ |④---|
15
②口口④ |①--②|
口口口口 |----|
①口口③ |③--④|
口口口口 |----|
16
口②口口 |①--②|
③口口③ |----|
口①口口 |③---|
口④④口 |④---|
17
口口口口 |①---|
②口口② |--②-|
①口口① |----|
口口口口 |----|
18
①②③口 |①---|
口口口口 |②---|
口口口口 |③---|
口口口口 |----|
19
口口口口 |①---|
①口口① |--②-|
②口口② |----|
口口口口 |----|
20
口口口口 |①---|
口口口口 |②---|
口口口口 |③---|
口③②① |----|
21
①②口口 |①---|
③④口口 |②---|
口口口口 |③---|
口口口口 |④---|
22
口口②① |①---|
口口④③ |②---|
口口口口 |③---|
口口口口 |④---|
23
口口口口 |①---|
口口口口 |②---|
①②口口 |③---|
③④口口 |④---|
24
口口口口 |①---|
口口口口 |②---|
口口②① |③---|
口口④③ |④---|
25
口①口口 |①---|
口口②口 |②---|
口③口口 |③---|
口口④口 |④---|
26
①口口口 |①---|
口口口② |②---|
③口口口 |③---|
口口口④ |④---|
27
口口①口 |①---|
口②口口 |②---|
口口③口 |③---|
口④口口 |④---|
28
口口口① |①---|
②口口口 |②---|
口口口③ |③---|
④口口口 |④---|
29
口①①口 |①---|
口口口口 |----|
口②②口 |②---|
口口口口 |----|
30
口口口口 |①---|
口④③口 |②---|
②口口① |③---|
口口口口 |④---|
31
口②②口 |①---|
口口口口 |----|
口口口口 |②---|
口①①口 |----|
32
口口口口 |①---|
①口口② |②---|
口③④口 |③---|
口口口口 |④---|
33
②口口② |①---|
口口口口 |----|
①口口① |②---|
口口口口 |----|
34
口口口口 |①---|
口②①口 |②---|
④口口③ |③---|
口口口口 |④---|
35
①口口① |①---|
口口口口 |----|
②口口② |②---|
口口口口 |----|
36
口口口口 |①---|
③口口④ |②---|
口口口口 |③---|
口①②口 |④---|
37
①②③④ |①---|
口口口口 |②---|
口口口口 |③---|
口口口口 |④---|
38
口口口口 |①---|
④③②① |②---|
口口口口 |③---|
口口口口 |④---|
39
口口口口 |①---|
口口口口 |②---|
①②③④ |③---|
口口口口 |④---|
40
口口口口 |①---|
口口口口 |②---|
口口口口 |③---|
④③②① |④---|
41
口口②① |①---|
口口④③ |②---|
口口口口 |③---|
口口口口 |④---|
42
①②口口 |①---|
③④口口 |②---|
口口口口 |③---|
口口口口 |④---|
43
口口口口 |①---|
口口口口 |②---|
口口②① |③---|
口口④③ |④---|
44
口口口口 |①---|
口口口口 |②---|
①②口口 |③---|
③④口口 |④---|
45
口口口口 |①---|
口③②① |②---|
口口口口 |③---|
口④④口 |④---|
46
口口口口 |----|
口口口口 |----|
口口口口 |----|
口口口口 |----|
47
口口口口 |----|
口口口口 |----|
口口口口 |----|
口①口口 |①---|
48
口口口口 |①---|
④③②① |②---|
口口口口 |③---|
口口口口 |④---|
49
口②②口 |①---|
口口口口 |---②|
口①①口 |----|
口口口口 |----|
50
口口口口 |①---|
口口口口 |②---|
①②③④ |③---|
口口口口 |④---|
51
口口口口 |①---|
口②②口 |---②|
口口口口 |----|
口①①口 |----|
52
②口口① |①---|
口口口口 |②---|
④口口③ |③---|
口口口口 |④---|
53
口②②口 |①---|
口口口口 |---②|
口口口口 |----|
口①①口 |----|
54
口口口口 |①---|
①口口② |②---|
口口口口 |③---|
③口口④ |④---|
55
口口口口 |①---|
口①①口 |---②|
口口口口 |----|
口②②口 |----|
56
口口口口 |①---|
口③②口 |②---|
④口口① |③---|
口口口口 |④---|
57
口口口口 |①---|
口口②② |---②|
口口口口 |----|
口口①① |----|
58
口口口口 |①---|
口②③口 |②---|
①口口④ |③---|
口口口口 |④---|
59
②②口口 |①---|
口口口口 |---②|
口口口口 |----|
①①口口 |----|
60
口口①口 |①---|
口②口口 |②---|
口口③口 |③---|
口④口口 |④---|
61
口口口口 |①---|
②口口② |---②|
口口口口 |----|
①口口① |----|
62
口①口口 |①---|
口口②口 |②---|
口③口口 |③---|
口口④口 |④---|
63
②口口② |①---|
口口口口 |---②|
①口口① |----|
口口口口 |----|
64
口口口口 |①---|
口口口口 |----|
②②②② |②---|
①①①① |----|
65
②②②② |①---|
口口口口 |---②|
口口口口 |----|
口①①口 |----|

accuracy: 100%
最終更新:2024年07月20日 01:50