アットウィキロゴ
nalca
onoken

ADVANCED

Level: 8
BPM: 136
Notes: 516

1
口口口口 |----|
口口口口 |----|
口口口口 |----|
口口口口 |----|
2
口口②① |①---|
③口口口 |②---|
口口口口 |③---|
口④口口 |④---|
3
口口⑤④ |①---|
口口③口 |②---|
②口口① |③---|
口口口口 |④-⑤-|
4
口①口口 |①---|
②口口口 |②---|
口口③口 |③---|
口口口④ |④---|
5
口口口④ |①---|
口②口⑤ |②---|
口口口口 |③---|
①口③口 |④-⑤-|
6
口④③口 |①-②-|
⑧口口口 |③-④-|
②口⑤① |⑤-⑥-|
口⑥口⑦ |⑦-⑧-|
7
口口口① |①-②-|
口④③口 |③-④-|
口②口口
口口口口

口口⑧⑦
口口口口
口口口⑤ |⑤-⑥-|
⑥口口口 |⑦-⑧-|
8
⑤①⑧口 |①-②-|
口⑦口口 |③-④-|
口口②⑥ |⑤-⑥-|
口③口④ |⑦-⑧-|
9
⑤③⑧口 |①-②-|
口⑦口④ |③-④-|
①口口口 |⑤-⑥-|
口口②⑥ |⑦-⑧-|
10
口口口② |①-②-|
①口口口 |③-④-|
口口④口
口③口口

口⑤口口
⑦⑦⑦⑦
口口口口 |⑤-⑥-|
口口⑥口 |⑦---|
11
口口口口 |----|
口口口口 |----|
口口口口 |----|
口口口口 |----|
12
口口口口 |----|
口口口口 |----|
口口口口 |----|
口口口口 |----|
13
口②④口 |①--②|
④口口② |----|
口口口口 |③--④|
①口口③ |----|
14
②口口口 |①--②|
口口口② |--③-|
③口口口
口①口口

口口④④
⑤⑤口口
口口⑥⑥ |④-⑤-|
⑦⑦口口 |⑥-⑦-|
15
②口口④ |①--②|
口④②口 |----|
口口口口 |③--④|
③口口① |----|
16
口口②口 |①--②|
②口口口 |--③-|
口口口③
口口①口

④④口口
口口⑤⑤
⑥⑥口口 |④-⑤-|
口口⑦⑦ |⑥-⑦-|
17
口⑤①口 |①②③④|
口②⑥口 |--⑤⑥|
口⑦③口 |⑦⑧--|
口④⑧口 |----|
18
口⑧⑦⑥ |①-②-|
②口④② |③④-⑤|
口③口口 |--⑥-|
①⑤⑤① |⑦-⑧-|
19
①口口⑤ |①②③④|
⑥口口② |--⑤⑥|
③口口⑦ |⑦⑧--|
⑧口口④ |----|
20
③④⑤口 |①②-③|
③④⑤口 |-④-⑤|
口口②口 |----|
口①口口 |----|
21
口口口④ |①-②-|
①①口口 |③-④-|
③口口口
口口②口

口⑦口口
口口⑥口
口口口口 |⑤-⑥-|
⑤⑤⑧口 |⑦-⑧-|
22
口口①① |①-②-|
口④口口 |③-④-|
口口③口
②口口口

口口口⑦
⑧口⑤⑤
口口口口 |⑤-⑥-|
口⑥口口 |⑦-⑧-|
23
口口②口 |①-②-|
口③口口 |③-④-|
①①口口
口口④口

⑤⑤口口
口口口⑧
口⑦⑥口 |⑤-⑥-|
口口口口 |⑦-⑧-|
24
口④口口 |①-②-|
口口口口 |③-④-|
②口③③
口口①①

口口⑦⑦
口口⑤⑤
⑧口口口 |⑤-⑥-|
口⑥口口 |⑦-⑧-|
25
口①口口 |①-②-|
①③口口 |③-④-|
口口口④
口口②口

口口⑥口
⑦口口口
口⑤⑧口 |⑤-⑥-|
⑤口口口 |⑦-⑧-|
26
口②⑤① |①-②-|
口口①⑤ |③-④-|
⑥口⑦③ |⑤-⑥-|
⑧④口口 |⑦-⑧-|
27
①口口口 |①-②-|
口①口④ |③-④-|
口③口口
口口口②

⑦口口口
口口⑥口
⑤口⑧口 |⑤-⑥-|
口⑤口口 |⑦-⑧-|
28
口④口④ |①---|
③口③口 |②---|
口②口② |③---|
①口①口 |④---|
29
口⑦②⑥ |①-②-|
③口⑧口 |③-④-|
⑤口口④ |⑤-⑥-|
口①口口 |⑦-⑧-|
30
⑬⑭⑮⑯ |①②③④|
⑨⑩⑪⑫ |⑤⑥⑦⑧|
⑤⑥⑦⑧ |⑨⑩⑪⑫|
①②③④ |⑬⑭⑮⑯|
31
口口口口 |①-②-|
口③⑥④ |③-④-|
⑦口②口 |⑤-⑥-|
①⑤口⑧ |⑦-⑧-|
32
①②③④ |①②③④|
⑤⑥⑦⑧ |⑤⑥⑦⑧|
⑨⑩⑪⑫ |⑨⑩⑪⑫|
⑬⑭⑮⑯ |⑬⑭⑮⑯|
33
口⑦④② |①-②-|
口①⑥⑧ |③-④-|
口③口口 |⑤-⑥-|
⑤口口口 |⑦-⑧-|
34
⑯⑮⑭⑬ |①②③④|
⑫⑪⑩⑨ |⑤⑥⑦⑧|
⑧⑦⑥⑤ |⑨⑩⑪⑫|
④③②① |⑬⑭⑮⑯|
35
口口口口 |①-②-|
⑥④口③ |③-④-|
②口⑦⑤ |⑤-⑥-|
口⑧①口 |⑦-⑧-|
36
④③②① |①②③④|
⑧⑦⑥⑤ |⑤⑥⑦⑧|
⑫⑪⑩⑨ |⑨⑩⑪⑫|
⑯⑮⑭⑬ |⑬⑭⑮⑯|
37
口口②① |①---|
③口口口 |②---|
口口口口 |③---|
口④口口 |④---|
38
口口⑤④ |①---|
口口③口 |②---|
②口口① |③---|
口口口口 |④-⑤-|
39
口①口口 |①---|
②口口口 |②---|
口口③口 |③---|
口口口④ |④---|
40
口口口④ |①---|
口②口⑤ |②---|
口口口口 |③---|
①口③口 |④-⑤-|
41
口④③口 |①-②-|
⑧口口口 |③-④-|
②口⑤① |⑤-⑥-|
口⑥口⑦ |⑦-⑧-|
42
口口口① |①-②-|
口④③口 |③-④-|
口②口口
口口口口

口口⑧⑦
口口口口
口口口⑤ |⑤-⑥-|
⑥口口口 |⑦-⑧-|
43
⑤①⑧口 |①-②-|
口⑦口口 |③-④-|
口口②⑥ |⑤-⑥-|
口③口④ |⑦-⑧-|
44
⑤③⑧口 |①-②-|
口⑦口④ |③-④-|
①口口口 |⑤-⑥-|
口口②⑥ |⑦-⑧-|
45
口口口② |①-②-|
①口口口 |③-④-|
口口④口
口③口口

口⑤口口
⑦⑦⑦⑦
口口口口 |⑤-⑥-|
口口⑥口 |⑦---|
46
口口口口 |----|
口口口口 |----|
口口口口 |----|
口口口口 |----|
47
口口口口 |----|
口口口口 |----|
口口口口 |----|
口①口口 |①---|
48
①④口① |①---|
口②口口 |---②|
口口口口 |③---|
口口③口 |④---|
49
②⑤⑤② |①--②|
③口口③ |-③-④|
④①①④ |----|
口口口口 |⑤---|
50
口口口口 |①--②|
口⑥③口 |--③-|
口⑤②口 |④--⑤|
口④①口 |--⑥-|
51
④①①④ |①--②|
③⑦口③ |-③-④|
②口⑥② |--⑤-|
口⑤口口 |⑥-⑦-|
52
口口①口 |①---|
口口②口 |---②|
口口口口
口口口口

口④④口
口口口口
口口口口 |③--④|
⑤③口⑤ |--⑤-|
53
②⑤⑤② |①--②|
③口口③ |-③-④|
④①①④ |----|
口口口口 |⑤---|
54
口口口口 |①--②|
口③口口 |--③-|
口②口口
口①口口

口口口口
口口口口
口⑦⑥口 |④-⑤-|
口⑤④口 |⑥-⑦-|
55
④①①④ |①--②|
③口⑦③ |-③-④|
②⑥口② |--⑤-|
口口⑤口 |⑥-⑦-|
56
口①口口 |①---|
口②口口 |---②|
口口口口
口口口口

口④口口
口口口口
口口口口 |③---|
口口③口 |④---|
57
②⑤⑤② |①--②|
③口口③ |-③-④|
④①①④ |----|
口口口口 |⑤---|
58
口口口口 |①--②|
口⑥③口 |--③-|
口⑤②口 |④--⑤|
口④①口 |--⑥-|
59
④①①④ |①--②|
③⑦口③ |-③-④|
②口⑥② |--⑤-|
口⑤口口 |⑥-⑦-|
60
口口①口 |①---|
口口②口 |---②|
口口口口
口口口口

口④④口
口口口口
口口口口 |③--④|
⑤③口⑤ |--⑤-|
61
②口口② |①--②|
③口口③ |-③-④|
④①①④ |--⑤-|
口⑦⑥⑤ |⑥-⑦-|
62
口口口口 |①--②|
口⑥③口 |--③-|
口②⑤口 |④--⑤|
①口口④ |--⑥-|
63
④①①④ |①--②|
③口口③ |-③-④|
②口口②
口口口口

口⑤⑤口
口口口口
口口口口 |----|
口口口口 |⑤---|
64
口口口口 |①--②|
⑤⑤③口 |--③-|
口口②口 |④--⑤|
口④①口 |----|
65
②⑥⑥① |①②③④|
⑥口口⑥ |-⑤-⑥|
④口口③ |----|
口⑤⑤口 |----|

accuracy: 100%
最終更新:2024年07月20日 01:50