アットウィキロゴ
nalca
onoken

EXTREME

Level: 10.3
BPM: 136
Notes: 764

1
口口口口 |----|
口口口口 |----|
口口口口 |----|
口口口口 |----|
2
口口⑤① |①-②-|
口⑥③口 |③-④-|
④口口⑦ |⑤-⑥-|
⑧②口口 |⑦-⑧-|
3
④⑥口口 |①-②-|
口口⑤① |③-④-|
⑧口③口 |⑤-⑥-|
口②口⑦ |⑦-⑧-|
4
⑥口⑤口 |①-②-|
②口口③ |③-④-|
口④口⑦ |⑤-⑥-|
口⑧①口 |⑦-⑧-|
5
口④口⑤ |①-②-|
口⑥③口 |③-④-|
②口口口 |⑤-⑥-|
口⑧①⑦ |⑦-⑧-|
6
口④⑨口 |①-②③|
⑥口口① |④-⑤-|
⑩⑧③⑤ |⑥-⑦⑧|
②口口⑦ |⑨-⑩-|
7
⑥口口① |①-②③|
口④⑨口 |④-⑤-|
口⑧③口 |⑥-⑦⑧|
⑩②⑦⑤ |⑨-⑩-|
8
口④⑨口 |①-②③|
⑥口口① |④-⑤-|
②⑧③⑦ |⑥-⑦⑧|
口⑩⑤口 |⑨-⑩-|
9
⑥口口① |①-②③|
②③④⑩ |④-⑤-|
口⑨⑧⑦ |⑥-⑦⑧|
⑤口口口 |⑨-⑩-|
10
口口①口 |①-②③|
②③④口 |④-⑤-|
⑤口口口
口口口口

⑥口口口
⑧口口⑧
口⑧⑧口 |⑥-⑦-|
口口口⑦ |⑧---|
11
口口口口 |----|
口口口口 |----|
口口口口 |----|
口口口口 |----|
12
③②①口 |----|
④⑤⑥⑦ |----|
口口口口 |-①②③|
口口口口 |④⑤⑥⑦|
13
⑦口口③ |①②-③|
口口口口 |--④-|
③⑥②⑦ |⑤⑥-⑦|
⑧①⑤④ |--⑧-|
14
口口口③ |①②-③|
口口口口 |--④⑤|
③⑤②口
口①④口

⑩⑪⑫⑬
⑨⑧⑦⑥
口口口口 |⑥⑦⑧⑨|
口口口口 |⑩⑪⑫⑬|
15
口口口口 |①②-③|
⑦口口③ |--④-|
③⑥②⑦ |⑤⑥-⑦|
⑧①⑤④ |--⑧-|
16
口口口口 |①②-③|
⑤口口③ |--④⑤|
③口②口
口①口④

口⑧⑥口
口⑪⑩口
口⑦⑨口 |⑥⑦⑧⑨|
口⑬⑫口 |⑩⑪⑫⑬|
17
⑤口口① |①②③④|
⑥⑪口② |--⑤⑥|
⑦口⑩③ |⑦⑧--|
⑧⑨口④ |-⑨⑩⑪|
18
②④①② |①-②-|
口口④口 |③④-⑤|
⑤③口口
口口③⑤

口口⑨口
⑦⑪口口
口口⑧口 |-⑥⑦⑧|
⑥⑩⑫口 |⑨⑩⑪⑫|
19
⑤口口① |①②③④|
⑥⑪口② |--⑤⑥|
⑦口⑩③ |⑦⑧--|
⑧⑨口④ |-⑨⑩⑪|
20
⑥口①④ |①②-③|
口口口口 |-④⑤⑥|
⑤②口口
③口口③

口口口口
⑦⑧⑨口
口⑪口⑩ |-⑦⑧⑨|
⑬口⑫口 |⑩⑪⑫⑬|
21
④③②① |①②③④|
⑧⑦⑥⑤ |⑤⑥⑦⑧|
⑨⑩⑪⑫ |⑨⑩⑪⑫|
⑬⑭⑮⑯ |⑬⑭⑮⑯|
22
④③②① |①②③④|
⑤⑥⑦⑧ |⑤⑥⑦⑧|
⑨⑩⑪⑫ |⑨⑩⑪⑫|
⑯⑮⑭⑬ |⑬⑭⑮⑯|
23
④③②① |①②③④|
⑧⑦⑥⑤ |⑤⑥⑦⑧|
⑫⑪⑩⑨ |⑨⑩⑪⑫|
⑬⑭⑮⑯ |⑬⑭⑮⑯|
24
①②③④ |①②③④|
⑧⑦⑥⑤ |⑤⑥⑦⑧|
⑨⑩⑪⑫ |⑨⑩⑪⑫|
⑯⑮⑭⑬ |⑬⑭⑮⑯|
25
⑧⑦⑥⑤ |①②③④|
④③②① |⑤⑥⑦⑧|
⑨⑩⑪⑫ |⑨⑩⑪⑫|
⑬⑭⑮⑯ |⑬⑭⑮⑯|
26
⑯⑮⑭⑬ |①②③④|
④③②① |⑤⑥⑦⑧|
⑤⑥⑦⑧ |⑨⑩⑪⑫|
⑨⑩⑪⑫ |⑬⑭⑮⑯|
27
⑯⑮⑭⑬ |①②③④|
④③②① |⑤⑥⑦⑧|
⑫⑪⑩⑨ |⑨⑩⑪⑫|
⑤⑥⑦⑧ |⑬⑭⑮⑯|
28
⑯⑮⑭⑬ |①②③④|
⑨⑩⑪⑫ |⑤⑥⑦⑧|
⑧⑦⑥⑤ |⑨⑩⑪⑫|
①②③④ |⑬⑭⑮⑯|
29
口口口口 |①②-③|
③口口口 |--④-|
④②口④
口口①③

口口口口
⑧⑨⑩⑦
口口⑥口 |⑤⑥-⑦|
⑦⑤口口 |-⑧⑨⑩|
30
④③②① |①②③④|
⑯⑮⑭⑬ |⑤⑥⑦⑧|
⑩⑥⑨⑤ |⑨⑩⑪⑫|
⑧⑫⑦⑪ |⑬⑭⑮⑯|
31
口③⑦口 |①②-③|
⑧⑨⑩口 |--④-|
⑦②⑥③ |⑤⑥-⑦|
④⑤①④ |-⑧⑨⑩|
32
口⑥口⑤ |①②③④|
口口口口 |⑤⑥⑦⑧|
⑧口⑦口
④③②①

口口口口
⑫⑪⑩⑨
口口口口 |⑨⑩⑪⑫|
⑯⑮⑭⑬ |⑬⑭⑮⑯|
33
③②口口 |①②-③|
口口口④ |--④-|
④③口①
口口口口

⑧⑨⑩⑦
⑤口口口
口口⑦口 |⑤⑥-⑦|
口口⑥口 |-⑧⑨⑩|
34
口口口口 |①②③④|
④③②① |⑤⑥⑦⑧|
口⑥口⑤
⑧口⑦口

口口口口
⑯⑮⑭⑬
⑩口⑨口 |⑨⑩⑪⑫|
口⑫口⑪ |⑬⑭⑮⑯|
35
口③口口 |①②-③|
口口口口 |--④-|
口④④③
②口①口

⑧⑨⑩口
口口⑦口
口口口口 |⑤⑥-⑦|
⑦⑤口⑥ |-⑧⑨⑩|
36
口口口⑤ |①②③④|
口口口口 |⑤⑥⑦⑧|
④③②①
⑥⑧⑦口

⑬⑭⑮⑯
⑫⑪⑩⑨
口口口口 |⑨⑩⑪⑫|
口口口口 |⑬⑭⑮⑯|
37
④口口口 |①---|
③口口口 |②---|
②口口口 |③---|
①口口口 |④---|
38
口①口口 |①---|
口②口口 |②---|
口③口口 |③---|
口④口口 |④---|
39
口口④口 |①---|
口口③口 |②---|
口口②口 |③---|
口口①口 |④---|
40
口口口① |①---|
口口口② |②---|
口口口③ |③---|
口口口④ |④---|
41
口口⑦⑤ |①-②③|
口⑧③② |④-⑤-|
口④⑨口 |⑥-⑦-|
①⑥口口 |⑧-⑨-|
42
口口口⑤ |①-②③|
口口③② |④-⑤-|
口④口口
①口口口

口口口口
口⑥⑪⑩
口口⑦⑧ |⑥⑦⑧-|
⑨口口口 |⑨-⑩⑪|
43
口口③② |①-②③|
口口口⑦ |④-⑤-|
④⑧口⑤ |⑥-⑦-|
⑥①⑨口 |⑧-⑨-|
44
口口③② |①-②③|
口口口口 |④-⑤-|
④口口⑤
口①口口

口口⑪⑩
口口⑦⑧
口口口口 |⑥⑦⑧-|
⑥⑨口口 |⑨-⑩⑪|
45
口口口口 |①-②-|
①口④⑤ |③④⑤-|
口③口口
口口口②

口⑥⑧⑥
⑧口口口
口口口⑧ |⑥-⑦-|
⑦⑧⑦口 |⑧---|
46
口口口口 |----|
口口口口 |----|
口口口口 |----|
口口口口 |----|
47
口口口口 |----|
口口口口 |----|
口口口口 |----|
口①①口 |①---|
48
口①①③ |①---|
④口口口 |②--③|
①②③① |④---|
⑤④口⑤ |⑤---|
49
④②口④ |①-②③|
②①①口 |-④-⑤|
口口口③
⑤口③⑤

口⑥⑥口
口⑥⑥⑦
口口口口 |----|
口口⑦口 |⑥-⑦-|
50
③口口⑥ |①--②|
②③⑥⑤ |--③-|
①②⑤④ |④--⑤|
口①④口 |--⑥-|
51
⑤⑥⑥口 |①②③④|
⑥口口⑥ |-⑤-⑥|
⑤口口④
①②③④

口口口口
口口口口
口⑦⑧⑨ |--⑦-|
⑦⑧⑨口 |⑧-⑨-|
52
①③③① |①---|
口口口口 |②--③|
口②口口
口口口口

⑤口口⑤
口口口口
④⑥⑥④ |④--⑤|
口口口口 |--⑥-|
53
④口②④ |①-②③|
口①口② |-④-⑤|
③口口口
⑤③①⑤

口⑥⑥口
⑦⑥⑥口
口口口口 |----|
口⑦口口 |⑥-⑦-|
54
口口口③ |①--②|
口口③② |--③-|
口口②①
口口①口

口⑥⑦口
⑥口口⑦
④口口⑤ |④-⑤-|
口④⑤口 |⑥-⑦-|
55
①口口④ |①-②③|
口①②口 |-④-⑤|
③⑤⑤④
⑤口口⑤

口⑧口口
⑥口口⑦
⑧口口口 |--⑥-|
口⑥⑦口 |⑦-⑧-|
56
口口①③ |①---|
④口口口 |②--③|
口②③① |④---|
⑤④口⑤ |⑤---|
57
④②口④ |①-②③|
②①①口 |-④-⑤|
口口口③
⑤口③⑤

口⑥⑥口
口⑥⑥⑦
口口口口 |----|
口口⑦口 |⑥-⑦-|
58
③口口⑥ |①--②|
②③⑥⑤ |--③-|
①②⑤④ |④--⑤|
口①④口 |--⑥-|
59
⑤⑥⑥口 |①②③④|
⑥口口⑥ |-⑤-⑥|
⑤口口④
①②③④

口口口口
口口口口
口⑦⑧⑨ |--⑦-|
⑦⑧⑨口 |⑧-⑨-|
60
①③③① |①---|
口口口口 |②--③|
口②口口
口口口口

⑤口口⑤
口口口口
④⑥⑥④ |④--⑤|
口口口口 |--⑥-|
61
⑥⑤④口 |①②③④|
①②③④ |-⑤-⑥|
口口口⑤
口口口⑥

口口口口
⑩⑪⑫⑬
⑨⑧⑦口 |-⑦⑧⑨|
口口口口 |⑩⑪⑫⑬|
62
口⑦⑥⑤ |①②③④|
口口口口 |-⑤⑥⑦|
口口口④
①②③④

口口口口
⑧⑨⑩⑪
⑪口⑬口 |⑧⑨⑩⑪|
⑭⑪口⑫ |-⑫⑬⑭|
63
④③②① |①②③④|
口⑥⑥⑤ |-⑤-⑥|
⑥④口⑥
口口⑤口

⑪口口⑩
口口口口
口口⑨口 |-⑦⑧⑨|
⑦⑧口⑪ |⑩-⑪-|
64
口④④口 |①②③④|
①②③④ |-⑤⑥⑦|
口口口口
⑦⑥⑤口

⑫⑬⑭⑪
口口口口
⑧⑨⑩⑪ |⑧⑨⑩⑪|
口口口口 |-⑫⑬⑭|
65
⑥口口⑥ |①②③④|
④③②① |-⑤-⑥|
⑥⑤⑤⑥ |----|
④③②① |----|

accuracy: 100%
最終更新:2024年07月20日 01:51