アットウィキロゴ
BILLION MONEY BAZOOKA
BlackY

BASIC

Level: 4
BPM: 176
Notes: 321

1
口口口口 |----|
口口口口 |----|
口口口口 |----|
口口口口 |----|
2
口口口口 |①---|
口①①口 |----|
口口口口 |②---|
口②口口 |----|
3
口口口口 |①---|
口①①口 |----|
口口口口 |②---|
口口②口 |----|
4
口口口口 |①---|
口①①口 |----|
口口口口 |②---|
②口口口 |----|
5
②口口② |①---|
口①①口 |----|
口口口口 |②---|
口口口口 |----|
6
口口口口 |①---|
口口口口 |②---|
口口口口 |③---|
④③②① |④---|
7
口口口口 |①---|
口口口口 |②---|
④③②① |③---|
口口口口 |④---|
8
口②①口 |①---|
口④③口 |②---|
口口口口 |③---|
口口口口 |④---|
9
口口口口 |①---|
口口口口 |----|
口口口口 |----|
口口①① |----|
10
口口口口 |①---|
口口口口 |②---|
口②口④ |③---|
①口③口 |④---|
11
口口口口 |①---|
口②口④ |②---|
①口③口 |③---|
口口口口 |④---|
12
①②③④ |①---|
口口口口 |②---|
口口口口 |③---|
口口口口 |④---|
13
口口口口 |①---|
④③②① |②---|
口口口口 |③---|
口口口口 |④---|
14
口口口口 |①---|
口口口口 |②---|
④口②口 |③---|
口③口① |④---|
15
口口口口 |①---|
④口②口 |②---|
口③口① |③---|
口口口口 |④---|
16
④③②① |①---|
口口口口 |②---|
口口口口 |③---|
口口口口 |④---|
17
口口口口 |①---|
口①①口 |②---|
口②②口 |③---|
口③③口 |----|
18
口口口口 |①---|
①③口① |----|
口口口口 |②---|
口口②口 |③---|
19
口口口口 |①---|
④口口③ |②---|
口口口口 |③---|
②口口① |④---|
20
④③②① |①---|
口口口口 |②---|
口口口口 |③---|
口口口口 |④---|
21
口口口口 |①---|
口口口口 |②---|
①②③④ |③---|
口口口口 |④---|
22
口①①口 |①---|
②口口③ |----|
口口口口 |②---|
口口口口 |③---|
23
口口口口 |①---|
口②③口 |②---|
口口口口 |③---|
①口口④ |④---|
24
①②③④ |①---|
口口口口 |②---|
口口口口 |③---|
口口口口 |④---|
25
口②②口 |①---|
口口口口 |----|
口①①口 |②---|
口口口口 |----|
26
口口口口 |①---|
②口口口 |----|
口口口口 |②---|
①口口① |----|
27
口口口口 |①---|
口②口口 |----|
口口口口 |②---|
①口口① |----|
28
口口口口 |①---|
口口②口 |----|
口口口口 |②---|
①口口① |----|
29
口口口口 |①---|
口口口② |----|
口口口口 |②---|
①口口① |----|
30
口口口口 |①---|
口口口口 |②---|
①②③④ |③---|
口口口口 |④---|
31
口口口口 |①---|
①②③④ |②---|
口口口口 |③---|
口口口口 |④---|
32
口①①口 |①---|
口②②口 |----|
口口口口 |②---|
口口口口 |----|
33
口口口口 |①---|
口口口口 |----|
口①①口 |----|
口口口口 |----|
34
口口口口 |①---|
③口口口 |②---|
②口口口 |③---|
①口口口 |----|
35
口口口④ |①---|
口口口③ |②---|
口口口② |③---|
口口口① |④---|
36
口口口口 |①---|
口③口口 |②---|
口②口口 |③---|
口①口口 |----|
37
口口口口 |①---|
①口口① |----|
①口口① |----|
口口口口 |----|
38
口口口口 |①---|
口口③口 |②---|
口口②口 |③---|
口口①口 |----|
39
①口口口 |①---|
②口口口 |②---|
③口口口 |③---|
口口口口 |----|
40
口口口④ |①---|
口口口③ |②---|
口口口② |③---|
口口口① |④---|
41
口口口口 |①---|
②口口② |----|
口口口口 |②---|
口①①口 |----|
42
口口④口 |①---|
口口口③ |②---|
口口②口 |③---|
口口口① |④---|
43
口④口口 |①---|
口③口口 |②---|
②口口口 |③---|
①口口口 |④---|
44
口口口① |①---|
口口②口 |②---|
口口口③ |③---|
口口④口 |④---|
45
②口口② |①---|
口口口口 |----|
口①①口 |②---|
口口口口 |----|
46
④口口口 |①---|
口③口口 |②---|
口②口口 |③---|
①口口口 |④---|
47
口口口④ |①---|
口口③口 |②---|
口口②口 |③---|
口口口① |④---|
48
口①①口 |①---|
口②②口 |----|
口口口口 |②---|
口口口口 |----|
49
口口口口 |①---|
口口口口 |----|
口①①口 |----|
口口口口 |----|
50
口口口口 |①---|
口口口口 |----|
口口口口 |----|
①口口① |----|
51
口口口口 |①---|
口口口口 |----|
①口口① |----|
口口口口 |----|
52
口口口口 |①---|
①口口① |----|
口口口口 |----|
口口口口 |----|
53
①口口① |①---|
口口口口 |----|
口口口口 |----|
口口口口 |----|
54
口①①口 |①---|
口口口口 |----|
口口口口 |----|
口口口口 |----|
55
口口口口 |①---|
口①①口 |----|
口口口口 |----|
口口口口 |----|
56
口口口口 |①---|
口口口口 |----|
口①①口 |----|
口①①口 |----|
57
口口口口 |①---|
①口口① |----|
①口口① |----|
口口口口 |----|
58
口口口口 |①---|
口口②口 |----|
口口口口 |②---|
①口口① |----|
59
口②口口 |①---|
口口口口 |----|
①口口① |②---|
口口口口 |----|
60
口口口口 |①---|
①口口① |----|
口口口口 |②---|
口口②口 |----|
61
①口口① |①---|
口口口口 |----|
口②口口 |②---|
口口口口 |----|
62
口口口口 |①---|
口口口口 |②---|
口口口口 |③---|
④③②① |④---|
63
口口口口 |①---|
④③②① |②---|
口口口口 |③---|
口口口口 |④---|
64
④②②④ |①---|
口口口口 |②---|
③①①③ |③---|
口口口口 |④---|
65
口口口口 |①---|
口①①口 |----|
口口口口 |----|
口口口口 |----|
66
口口④口 |①---|
口口口③ |②---|
口口②口 |③---|
口口口① |④---|
67
口口口口 |①---|
①口③口 |②---|
口②口④ |③---|
口口口口 |④---|
68
④口口口 |①---|
口③口口 |②---|
②口口口 |③---|
口①口口 |④---|
69
口口口① |①---|
口口②口 |②---|
口③口口 |③---|
④口口口 |④---|
70
口④口口 |①---|
③口口口 |②---|
②口口口 |③---|
口①口口 |④---|
71
口口④口 |①---|
口口口③ |②---|
口口口② |③---|
口口①口 |④---|
72
口口口口 |①---|
口①②口 |②---|
口③④口 |③---|
口口口口 |④---|
73
①口口① |①---|
②口口② |②---|
③口口③ |③---|
口口口口 |----|
74
口④口口 |①---|
③口口口 |②---|
口②口口 |③---|
①口口口 |④---|
75
口口口口 |①---|
口③口① |②---|
④口②口 |③---|
口口口口 |④---|
76
口口口④ |①---|
口口③口 |②---|
口口口② |③---|
口口①口 |④---|
77
①口口口 |①---|
口②口口 |②---|
口口③口 |③---|
口口口④ |④---|
78
口口④口 |①---|
口口口③ |②---|
口口口② |③---|
口口①口 |④---|
79
口④口口 |①---|
③口口口 |②---|
②口口口 |③---|
口①口口 |④---|
80
口口口口 |①---|
口②①口 |②---|
口④③口 |③---|
口口口口 |④---|
81
①口口① |①---|
②口口② |②---|
③口口③ |③---|
④口口④ |④---|
82
口②①口 |①---|
口④③口 |②---|
口口口口 |③---|
口口口口 |④---|
83
口口口口 |①---|
口口口口 |②---|
口②①口 |③---|
口④③口 |④---|
84
④口口④ |①---|
③口口③ |②---|
②口口② |③---|
①口口① |④---|
85
口②②口 |①---|
口口口口 |----|
口口口口 |②---|
口①①口 |----|
86
口口口口 |①---|
口①①口 |----|
口①①口 |----|
口口口口 |----|

accuracy: 100%
最終更新:2024年07月20日 01:54