アットウィキロゴ
BILLION MONEY BAZOOKA
BlackY

ADVANCED

Level: 8
BPM: 176
Notes: 607

1
口口口口 |----|
口口口口 |----|
口口口口 |----|
口口口口 |----|
2
口⑤⑦① |①--②|
②口口口 |--③-|
口口口③ |④-⑤-|
口④⑥口 |⑥-⑦-|
3
③口口④ |①--②|
口②⑤口 |--③-|
①口口⑥ |④--⑤|
口口口口 |--⑥-|
4
口⑦⑤口 |①--②|
①口口口 |--③-|
口口②口 |④-⑤-|
③⑥④口 |⑥-⑦-|
5
②口口⑥ |①--②|
口口口口 |--③-|
口③⑤口 |④--⑤|
④口口① |--⑥-|
6
①⑦⑤口 |①--②|
口口口② |--③-|
③口口口 |④-⑤-|
口⑥④口 |⑥-⑦-|
7
④口口③ |①--②|
口⑤②口 |--③-|
⑥口口① |④--⑤|
口口口口 |--⑥-|
8
口⑤⑦口 |①--②|
口口口① |--③-|
口②口口 |④-⑤-|
口④⑥③ |⑥-⑦-|
9
②口口② |①---|
①口口口 |----|
①口口口 |----|
口口口口 |②---|
10
口④口口 |①-②-|
⑧口③⑤ |③-④-|
口②口口 |⑤-⑥-|
⑦口①⑥ |⑦-⑧-|
11
口②②④ |--①-|
口⑤口口 |--②-|
口口③口 |--③-|
口①①口 |④-⑤-|
12
口⑧④口 |①-②-|
⑦口口③ |③-④-|
⑥口口② |⑤-⑥-|
口⑤①口 |⑦-⑧-|
13
⑧口口⑦ |①-②-|
口⑥⑤口 |③-④-|
口④③口 |⑤-⑥-|
②口口① |⑦-⑧-|
14
口④⑤口 |①-②-|
口⑧口③ |③-④-|
②口⑦口 |⑤-⑥-|
口⑥①口 |⑦-⑧-|
15
②口口② |--①-|
口口口④ |--②-|
①⑤口① |--③-|
口口③口 |④-⑤-|
16
④口口③ |①-②-|
口⑥⑤口 |③-④-|
口口口口 |⑤-⑥-|
②⑧⑦① |⑦-⑧-|
17
③口口③ |①---|
②口口② |②---|
①口口① |③---|
口口口口 |----|
18
口口口④ |①-②-|
口⑤口口 |③---|
口口⑥口 |④-⑤-|
⑦③②① |⑥-⑦-|
19
口③②口 |①-②-|
④口⑥① |③-④-|
⑦口口口 |--⑤-|
口⑤口口 |⑥-⑦-|
20
⑤口口④ |①-②-|
⑥口口③ |③-④-|
⑦口口② |⑤-⑥-|
⑧口口① |⑦-⑧-|
21
口⑧⑦口 |①-②-|
口⑥⑤口 |③-④-|
口④③口 |⑤-⑥-|
口②①口 |⑦-⑧-|
22
口口口口 |①-②-|
⑦口口④ |③---|
口⑥⑤口 |④-⑤-|
口③②① |⑥-⑦-|
23
④③②① |①-②-|
口⑥⑦口 |③-④-|
⑤口口⑧ |⑤-⑥-|
口口口口 |⑦-⑧-|
24
口⑦⑧口 |①-②-|
⑤口口⑥ |③-④-|
口③④口 |⑤-⑥-|
①口口② |⑦-⑧-|
25
口口口口 |①---|
口口口口 |----|
口口口口 |----|
口①①口 |----|
26
口口⑦口 |①--②|
口⑥口① |--③-|
口口⑤② |④-⑤-|
口④口③ |⑥-⑦-|
27
③口口④ |①--②|
②口口⑤ |--③-|
①口口⑥ |④--⑤|
口口口口 |--⑥-|
28
口⑦口口 |①--②|
①口⑥口 |--③-|
②⑤口口 |④-⑤-|
③口④口 |⑥-⑦-|
29
④口口③ |①--②|
⑤口口② |--③-|
⑥口口① |④--⑤|
口口口口 |--⑥-|
30
口④⑤口 |①---|
口口口② |②---|
口③③口 |③---|
口①①口 |④-⑤-|
31
④口口④ |①---|
③口口③ |②---|
②口口② |③---|
①口口① |④---|
32
口口④口 |①-②-|
⑥③口⑥ |③-④-|
⑤口②⑤ |⑤---|
口①口口 |⑥---|
33
①口口① |①---|
口口口口 |----|
口口口口 |----|
口口口口 |----|
34
口⑤④③ |①---|
②口口口 |②---|
口口口口 |③-④-|
口①口口 |⑤---|
35
口口⑥⑦ |①-②-|
④⑤口口 |③---|
①②③口 |④-⑤-|
口口口口 |⑥-⑦-|
36
③口口口 |①---|
口口④② |②---|
⑤口口口 |③-④-|
口口①⑥ |⑤-⑥-|
37
口⑦⑧口 |①②-③|
⑨⑤⑥⑩ |④-⑤⑥|
⑨③④⑩ |-⑦⑧-|
口①②口 |⑨-⑩-|
38
①口口① |----|
口口口口 |①---|
口口口口 |②-③-|
②③④口 |④---|
39
⑥口口⑥ |①-②-|
口③口口 |③---|
④⑤②① |④-⑤-|
口口口口 |⑥---|
40
⑦⑥口口 |①-②-|
口⑤④口 |③-④-|
口口③② |⑤-⑥-|
口口口① |⑦---|
41
口口口口 |①--②|
②口口⑥ |--③-|
口④④口 |④--⑤|
③①①⑤ |--⑥-|
42
②口口② |①---|
③①①口 |②---|
口口口④ |--③-|
⑤口口口 |④-⑤-|
43
口口口口 |①-②-|
口③②⑦ |③-④-|
⑥④①口 |--⑤-|
口口口⑤ |⑥-⑦-|
44
①②口口 |①-②-|
口⑤⑤口 |③-④-|
口口③④ |⑤---|
口⑥⑥口 |⑥---|
45
⑦口口⑧ |①②-③|
⑤⑨⑩⑥ |④-⑤⑥|
③⑨⑩④ |-⑦⑧-|
①口口② |⑨-⑩-|
46
口②②口 |①---|
口口口③ |②---|
口④口口 |--③-|
①口⑤口 |④-⑤-|
47
④口⑥⑥ |①-②-|
③⑤口口 |③-④-|
②口⑦⑦ |--⑤-|
①口口口 |⑥-⑦-|
48
⑤⑥⑦⑧ |①-②-|
⑨⑩⑪⑫ |③-④-|
口③口口 |⑤⑥⑦⑧|
①口④② |⑨⑩⑪⑫|
49
口口②口 |①---|
口③口口 |----|
①口④口 |②-③-|
口⑤口口 |④-⑤-|
50
口口口口 |①---|
①口口① |----|
②③④口 |--②-|
口口口口 |③-④-|
51
①口口① |----|
口口口口 |--①-|
口②②口 |----|
口口口口 |②---|
52
口口②口 |①---|
③口⑤⑤ |②---|
口④口口 |③-④-|
口①口口 |--⑤-|
53
①②③口 |--①-|
口口口口 |②-③-|
口④④口 |----|
口口口口 |④---|
54
口口口口 |--①-|
④口口⑤ |②-③-|
②⑥⑥③ |④-⑤-|
口口口① |--⑥-|
55
①口口① |--①-|
口②②口 |--②-|
口口口口 |--③-|
③④④③ |--④-|
56
口口⑤口 |①---|
①口口④ |----|
①口③口 |②-③-|
口口口② |④-⑤-|
57
②口口② |--①-|
口口口口 |--②-|
③口口③ |--③-|
口①①口 |----|
58
口口口口 |①---|
口①①口 |----|
口①①口
口口口口

口口口口
口口④口
口口口口 |--②-|
②③④口 |③-④-|
59
①口口① |----|
口口口口 |--①-|
②口口② |----|
口口口口 |②---|
60
⑤②②口 |①---|
口③口口 |②---|
⑤口④口 |③-④-|
口①①口 |--⑤-|
61
口③③口 |--①-|
口口口口 |②-③-|
口②口口 |----|
④口①④ |④---|
62
口口口口 |--①-|
口⑤④口 |②-③-|
口③②口 |④-⑤-|
⑥①口⑥ |--⑥-|
63
③口口③ |--①-|
②口口② |--②-|
①口口① |--③-|
口口口口 |----|
64
口⑧①口 |①-②-|
口⑦②口 |③-④-|
口⑥③口 |⑤-⑥-|
口⑤④口 |⑦-⑧-|
65
②口口① |①--②|
④口口③ |--③-|
②口口① |-④--|
④口口③ |----|
66
④⑤口③ |①--②|
口②口口 |--③-|
口口口⑥ |--④-|
口口①口 |⑤-⑥-|
67
口口口口 |①②③④|
口②①⑨ |⑤-⑥-|
⑧④③口 |--⑦-|
⑥口⑤⑦ |⑧-⑨-|
68
口③口口 |①--②|
②⑤⑥口 |--③-|
口⑦④口 |④-⑤-|
口①口口 |⑥-⑦-|
69
①口口① |①---|
②口口② |②---|
③口口③ |③---|
④口口④ |④---|
70
口①①口 |①--②|
③口口③ |--③-|
口②②口 |--④-|
④⑤⑥口 |⑤-⑥-|
71
③口口③ |①--②|
口②②④ |--③-|
①⑦⑧① |--④-|
口⑤⑥口 |⑤⑥⑦⑧|
72
⑦口③口 |①--②|
⑥①口口 |--③-|
⑤口口口 |④-⑤-|
④口口② |⑥-⑦-|
73
口①口① |①---|
④②④② |②---|
口③口③ |③---|
口口口口 |④---|
74
④⑤口③ |①--②|
口②口口 |--③-|
口口口⑥ |--④-|
口口①口 |⑤-⑥-|
75
口口口口 |①②③④|
口②①⑨ |⑤-⑥-|
⑧④③口 |--⑦-|
⑥口⑤⑦ |⑧-⑨-|
76
口③口口 |①--②|
②⑤⑥口 |--③-|
口⑦④口 |④-⑤-|
口①口口 |⑥-⑦-|
77
①口口① |①---|
②口口② |②---|
③口口③ |③---|
④口口④ |④---|
78
口①①口 |①--②|
③口口③ |--③-|
口②②口 |--④-|
④⑤⑥口 |⑤-⑥-|
79
③口口③ |①--②|
口②②④ |--③-|
①⑦⑧① |--④-|
口⑤⑥口 |⑤⑥⑦⑧|
80
⑦口③口 |①--②|
⑥①口口 |--③-|
⑤口口口 |④-⑤-|
④口口② |⑥-⑦-|
81
口①口① |①---|
口②口② |②---|
口③口③ |③---|
口④口④ |④---|
82
口口③口 |①---|
④②①口 |②---|
④口口③ |③---|
②口①口 |④---|
83
②④口口 |①---|
口口口③ |②---|
④②①口 |③---|
口口①③ |④---|
84
口口口口 |①-②-|
②口口口 |③-④-|
口口口①
口④③口

⑧⑦⑥⑤
⑫⑪⑩⑨
口口口口 |⑤⑥⑦⑧|
口口口口 |⑨⑩⑪⑫|
85
口口口口 |①--②|
口口口口 |--③-|
口⑤②口 |④--⑤|
④③⑥① |--⑥-|
86
口口口口 |①---|
口①①口 |----|
口口口口 |----|
口口口口 |----|

accuracy: 100%
最終更新:2024年07月20日 01:55