アットウィキロゴ
BILLION MONEY BAZOOKA
BlackY

EXTREME

Level: 10.4
BPM: 176
Notes: 934

1
口口口口 |----|
口口口口 |----|
口口口口 |----|
口口口口 |----|
2
口口口口 |①---|
②①①口 |----|
口①①口 |----|
②口口口 |--②-|
3
口口口口 |①---|
口口口① |----|
口③口口 |--②-|
口口②① |--③-|
4
①②②① |①---|
口①①口 |----|
②口口② |②---|
口口口口 |----|
5
③口口③ |①-②-|
④②①④ |----|
⑤口口⑤ |③--④|
②①②① |--⑤-|
6
⑥口口⑤ |①-②-|
口⑧①口 |③-④-|
口②⑤⑦ |⑤-⑥-|
口④③① |⑦-⑧-|
7
口②①口 |①-②-|
⑥口⑦① |③-④-|
口口⑤口 |⑤-⑥-|
④⑧③⑤ |⑦-⑧-|
8
⑥②①⑤ |①②③④|
口口口口 |⑤⑥⑦⑧|
⑧口⑦①
④口③口

口口口口
⑯⑩⑬⑨
口⑭口⑮ |⑨⑩⑪⑫|
口⑫口⑪ |⑬⑭⑮⑯|
9
口①①口 |①---|
口口口口 |----|
口口口口 |----|
口口口口 |----|
10
⑦口②④ |①-②-|
⑤口③① |③-④-|
③口⑥⑤ |⑤-⑥-|
①口⑦⑧ |⑦-⑧-|
11
口⑦④口 |①-②-|
口⑤口② |③-④-|
口③⑥⑦ |⑤-⑥-|
口①⑧口 |⑦-⑧-|
12
⑦⑧③① |①-②-|
⑤⑥④② |③-④-|
③④⑦⑥ |⑤-⑥-|
①②⑧⑤ |⑦-⑧-|
13
⑥⑧③① |①-②-|
⑤⑦④② |③-④-|
②④⑦⑥ |⑤-⑥-|
①③⑧⑤ |⑦-⑧-|
14
口⑦②④ |①-②-|
⑤口③① |③-④-|
口③⑥⑤ |⑤-⑥-|
①口⑦⑧ |⑦-⑧-|
15
⑦口④口 |①-②-|
口⑤口② |③-④-|
③口⑥⑦ |⑤-⑥-|
口①⑧口 |⑦-⑧-|
16
⑦⑧③① |①-②-|
⑤⑥④② |③-④-|
③④⑦⑥ |⑤-⑥-|
①②⑧⑤ |⑦-⑧-|
17
口口②① |①-②-|
口口④③ |③-④-|
③③口口
①①口口

口口口口
⑤⑤口口
口口口⑤ |⑤---|
⑥口口口 |--⑥-|
18
①②③④ |①-②-|
⑥口⑥口 |③---|
④口⑤⑦ |④-⑤-|
口③②① |⑥-⑦-|
19
口口④口 |①-②-|
口口口② |③-④-|
口③口口
①口①③

⑦口口⑦
口⑤⑧口
口口⑥口 |⑤-⑥-|
口⑨⑧口 |⑦-⑧⑨|
20
⑩⑧③口 |①-②-|
②⑨口③ |③-④⑤|
④⑤⑥⑦ |⑥⑦⑧-|
①口口口 |⑨-⑩-|
21
口⑥口③ |①②③-|
口口③口 |④⑤-⑥|
④口⑤口
①②口⑤

口口⑨口
口⑧⑫⑦
口⑪口⑨ |⑦-⑧⑨|
⑩口⑦口 |-⑩⑪⑫|
22
①口④① |①-②-|
②⑦⑦口 |③---|
③口⑤口 |④-⑤-|
⑥④口⑥ |⑥-⑦-|
23
③口口① |①-②-|
口口口② |③-④-|
口②口④
口口③口

口口⑦⑧
口⑦口口
口口⑤口 |⑤-⑥-|
⑧⑤口⑥ |⑦-⑧-|
24
口①口口 |①-②-|
③口②② |③-④-|
①③④④
口口口口

⑦口⑫⑩
口口口口
⑪口口口 |⑤⑥⑦⑧|
⑨⑤⑥⑧ |⑨⑩⑪⑫|
25
⑪口口⑫ |①②③④|
口①②③ |⑤⑥⑦⑧|
口④⑤⑥ |⑨-⑩-|
⑩⑦⑧⑨ |⑪-⑫-|
26
⑤①①⑦ |①--②|
口①①② |--③-|
④口口⑥ |④-⑤-|
口口③口 |⑥-⑦-|
27
口③口口 |①--②|
口口口口 |--③-|
口口②口
①口口口

口口④口
口口口口
口⑤口口 |④--⑤|
⑥口口⑥ |--⑥-|
28
口口口② |①--②|
口⑤⑦口 |--③-|
①口③① |④-⑤-|
口④⑥口 |⑥-⑦-|
29
口④④② |①--②|
口⑦⑦口 |--③-|
⑤口③⑤ |④--⑤|
①口⑥口 |⑥-⑦-|
30
口口口口 |①---|
口口口② |②---|
口口口口
①①口①

口口口④
口口口口
③③口③ |③---|
⑤口口口 |④-⑤-|
31
②口口口 |①--②|
口口③口 |③-④-|
④口口口
口①①口

口口⑦口
⑥口口口
口⑤⑤口 |⑤--⑥|
口⑧口口 |⑦-⑧-|
32
②②口① |①-②-|
⑩⑨⑧① |③-④-|
④⑦⑥⑤ |⑤-⑥-⑦-|
④口③③ |⑧-⑨-⑩-|
33
①口口① |①---|
口口口口 |----|
口口口口 |----|
口口口口 |----|
34
口口⑦④ |---①|
⑤口口⑨ |②③④-|
口②⑥③ |⑤⑥⑦-|
口口①⑧ |-⑧⑨-|
35
③⑥口口 |①②③-|
口口①口 |④⑤⑥-|
②⑤口④
口口口口

口口口口
⑨⑪⑪口
口口⑦口 |⑦⑧⑨-|
⑧⑩⑩口 |⑩-⑪-|
36
口口⑦④ |---①|
⑧口⑨⑨ |②③④-|
⑤②⑥③ |⑤⑥⑦-|
⑧口口① |⑧-⑨-|
37
②④口⑥ |①②-③|
口②口口 |④-⑤⑥|
口④⑥口
口⑤③①

⑩口⑧口
⑨口⑩口
⑨口口⑧ |-⑦⑧-|
⑦口口口 |⑨-⑩-|
38
口口⑦⑨ |---①|
口口口④ |②③④-|
口②⑥⑧ |⑤⑥⑦-|
口⑤①③ |-⑧⑨-|
39
③⑥口口 |①②③-|
⑨⑫⑦④ |④⑤⑥-|
②⑤⑪口 |⑦⑧⑨-|
⑧⑩①口 |-⑩⑪⑫|
40
口口①⑤ |①--②|
口⑩⑩⑧ |③④⑤-|
⑥③口④ |⑥⑦⑧-|
⑨⑨②⑦ |⑨-⑩-|
41
④②②⑤ |①--②|
⑥口口⑦ |--③-|
⑧③①口 |④⑤⑥⑦|
口口①③ |⑧---|
42
口口⑦④ |---①|
⑤②口⑩ |②③④-|
口②⑥③ |⑤⑥⑦-|
口⑧①⑨ |⑧⑨⑩-|
43
③⑥口口 |①②③-|
口口①口 |④⑤⑥-|
②⑤口④
口口口口

口口口口
⑨⑪⑪口
口口⑦口 |⑦⑧⑨-|
⑧⑩⑩口 |⑩-⑪-|
44
①口⑧⑤ |①--②|
⑨口⑩⑩ |③④⑤-|
⑥③⑦④ |⑥⑦⑧-|
⑨口口② |⑨-⑩-|
45
②④口⑥ |①②-③|
口②口口 |④-⑤⑥|
口④⑥口
口⑤③①

⑩口⑧口
⑨口⑩口
⑨口口⑧ |-⑦⑧-|
⑦口口口 |⑨-⑩-|
46
口口⑦⑩ |---①|
口②口④ |②③④-|
口②⑥⑨ |⑤⑥⑦-|
⑧⑤①③ |⑧⑨⑩-|
47
③⑥⑪口 |①②③-|
⑨⑪⑦④ |④⑤⑥-|
②⑤⑫⑩ |⑦⑧⑨⑩|
⑧⑫①口 |⑪-⑫-|
48
①⑦⑭③ |①-②③|
⑬⑪⑧⑥ |④⑤⑥-|
②④⑫⑩ |⑦⑧⑨⑩|
⑨口口⑤ |⑪⑫⑬⑭|
49
②口口口 |①---|
口口口③ |----|
口口口⑤ |②-③-|
④①①口 |④-⑤-|
50
口口口口 |①---|
⑤①①⑤ |--②-|
②④口口 |--③-|
口口③口 |④-⑤-|
51
口口①② |----|
口④口口 |----①②--|
⑤口④口 |--③-|
口③口口 |④-⑤-|
52
口口口② |①---|
口口口口 |②-③-|
口③口口
①口③①

口④⑤口
⑥口口口
口口口⑥ |④-⑤-|
⑥口口口 |--⑥-|
53
口口口口 |--①-|
口口③④ |②---③④--|
口②口口 |----|
口口⑤① |⑤---|
54
④口④⑥ |①-②-|
口④⑦口 |③-④-|
①③⑤② |⑤-⑥-|
口①口口 |--⑦-|
55
口①口口 |①-②-|
①口口② |--③-|
③口口④ |--④-|
口③⑤③ |--⑤-|
56
①①①① |①---|
口④③② |----|
口⑤口口 |②-③-|
⑤口口⑤ |④-⑤-|
57
③①口③ |--①-|
②③口② |--②-|
①口②① |--③-|
口口口口 |----|
58
④④口④ |①---|
口口口口 |----|
①口③① |--②-|
口①①② |③-④-|
59
口⑤④口 |①---|
③口②② |--②-|
①①口④ |--③-|
口口口口 |④-⑤-|
60
口口口② |①---|
口口口口 |②---|
口口口口
①①口①

口口口口
口口口③
③③④口 |③-④-|
口口⑤⑤ |--⑤-|
61
②⑤⑤③ |①-②-|
①⑥⑥④ |③-④-|
口⑦⑦② |⑤--⑥|
口口口口 |--⑦-|
62
③⑤⑧④ |①-②-|
⑤⑦口口 |③-④-|
①口口② |⑤-⑥-|
口①⑥口 |⑦-⑧-|
63
口⑤口⑧ |①-②-|
⑤⑦口② |③-④-|
③①④口 |⑤-⑥-|
①口⑥口 |⑦-⑧-|
64
①⑨⑫⑯ |①②③④|
⑦⑮②⑥ |⑤⑥⑦⑧|
⑤③⑧⑭ |⑨⑩⑪⑫|
⑪⑬⑩④ |⑬⑭⑮⑯|
65
①③口口 |①--②|
⑤口②③ |--③-|
④①口⑤ |-④--|
口口④② |⑤---|
66
⑦口④② |①--②|
口①口口 |③-④-|
口⑥⑧⑨ |⑤-⑥-|
①③⑤⑦ |⑦-⑧⑨|
67
口口⑥口 |①②③④|
①②③④ |⑤-⑥-|
⑤口口口
①⑤口口

⑧口口口
口⑩⑪口
口口⑨口 |⑦-⑧-|
口口⑦⑨ |⑨-⑩⑪|
68
口⑧口口 |①--②|
④口⑦② |③-④-|
⑤①⑥口 |⑤-⑥-|
①③⑤⑦ |⑦-⑧-|
69
③口①② |①---|
④②④① |②---|
口③口口 |③---|
①②③④ |④---|
70
口②①⑧ |①--②|
口⑨⑦① |③-④⑤|
④⑤口口 |⑥-⑦-|
①③⑥⑧ |⑧-⑨-|
71
④⑤②口 |①--②|
⑧⑨⑩⑪ |③-④⑤|
⑦口口① |⑥-⑦-|
①③⑥⑧ |⑧⑨⑩⑪|
72
⑥⑤④⑨ |①--②|
口口⑧口 |③-④⑤|
⑦①口② |⑥-⑦-|
①③⑥⑧ |⑧-⑨-|
73
口②③口 |①---|
②①口① |②---|
③口口④ |③---|
①②③口 |④---|
74
⑦口④② |①--②|
口①口口 |③-④-|
口⑥⑧⑨ |⑤-⑥-|
①③⑤⑦ |⑦-⑧⑨|
75
口口⑥口 |①②③④|
①②③④ |⑤-⑥-|
⑤口口口
①⑤口口

⑧口口口
口⑩⑪口
口口⑨口 |⑦-⑧-|
口口⑦⑨ |⑨-⑩⑪|
76
口⑧口口 |①--②|
④口⑦② |③-④-|
⑤①⑥口 |⑤-⑥-|
①③⑤⑦ |⑦-⑧-|
77
③口①② |①---|
④②⑤① |②---|
⑥口③口 |③--④|
①②③⑤ |⑤-⑥-|
78
口②①③ |①-②③|
口口口① |④-⑤⑥|
口①⑤⑥
④口口口

⑦口口口
⑨口⑧⑫
⑪口口口 |⑦-⑧⑨|
口口⑩口 |⑩-⑪⑫|
79
⑦④③① |①-②③|
⑨②⑪⑩ |④-⑤⑥|
⑫⑬⑤⑥ |⑦-⑧⑨|
口口⑧口 |⑩⑪⑫⑬|
80
口口口口 |①-②③|
口④口口 |④-⑤⑥|
口口③口
②⑤⑥①

⑦⑬⑧口
⑨口口⑫
口⑪口⑩ |⑦⑧⑨⑩|
口口口⑭ |⑪⑫⑬⑭|
81
口④③② |①---|
③②④口 |②---|
①④②③ |③---|
①③④口 |④---|
82
⑧⑥④② |①-②-|
口口口口 |③-④-|
③⑦③⑤ |⑤-⑥-|
①⑤⑦① |⑦-⑧-|
83
⑧⑥④② |①-②-|
口①⑤⑦ |③-④-|
口口③口 |⑤-⑥-|
①⑤⑦③ |⑦-⑧-|
84
口口口① |①-②-|
②④口口 |③-④-|
④口③①
②口口③

⑧⑫⑤⑪
口口⑨⑦
口⑥口口 |⑤⑥⑦⑧|
口⑩口口 |⑨⑩⑪⑫|
85
⑥口④口 |①--②|
口②口口 |--③-|
口口口① |④--⑤|
③口①⑤ |--⑥-|
86
口①口口 |①---|
口①①口 |----|
口①①口 |----|
口口口口 |----|

accuracy: 100%
最終更新:2024年07月20日 01:55