アットウィキロゴ
White Stream / BEMANI Sound Team "ZAQUVA”
BPM:222
Notes:966

1
①①④□ |①---|
⑤③□□ |②---|
□□□□ |③-④-|
⑤□②□ |--⑤-|

2
□□□□ |--①-|
□④②□ |--②-|
□①□③ |--③-|
□□②□ |--④-|

3
□□①① |①---|
□□④□ |②---|
③⑤□□ |③-④-|
□②⑥□ |⑤-⑥-|

4
□□□② |--①-|
①③⑥□ |--②-|
□⑤④□ |③-④-|
①□□② |⑤-⑥-|

5
①①④□ |①---|
⑤③□□ |②---|
□□□□ |③-④-|
⑤□②□ |--⑤-|

6
□□□□ |--①-|
□④②□ |--②-|
□①□③ |--③-|
□□②□ |--④-|

7
□□①① |①---|
□□④□ |②---|
③⑤□□ |③-④-|
□②⑥□ |⑤-⑥-|

8
□□□② |--①-|
①③⑥□ |--②-|
□⑤④□ |③-④-|
①□□② |⑤-⑥-|

9
①①□□ |①-②③|
⑤⑨□③ |-④⑤-|
④□⑧② |⑥-⑦-|
⑦□□⑥ |⑧-⑨-|

10
④③②① |①②③④|
□□□⑥ |-⑤⑥-|
⑨□⑩⑤ |⑦-⑧-|
□⑦□⑧ |⑨-⑩-|

11
□③⑤□ |①-②③|
⑧②④⑦ |-④⑤-|
□□□□ |⑥-⑦-|
①⑥①⑨ |⑧-⑨-|

12
⑥⑧⑦⑨ |①②③④|
□⑩⑤⑪ |-⑤⑥⑦|
③⑫④⑬ |⑧⑨⑩⑪|
①⑭②⑮ |⑫⑬⑭⑮|

13
□□□□ |①-②③|
①⑦⑥⑧ |-④⑤-|
⑤□③□ |⑥-⑦-|
④⑨②□ |⑧-⑨-|

14
④③②① |①②③④|
□⑨⑩□ |-⑤⑥-|
□□⑧⑥ |⑦-⑧-|
⑦□□⑤ |⑨-⑩-|

15
⑤□⑥③ |①-②③|
④□□② |-④⑤-|
⑦□⑧□ |⑥-⑦-|
⑨①①□ |⑧-⑨-|

16
⑨⑦⑧⑥ |①②③④|
⑪⑤⑩□ |-⑤⑥⑦|
⑬④⑫③ |⑧⑨⑩⑪|
⑮②⑭① |⑫⑬⑭⑮|

17
□□④□ |①---|
⑤③□① |②---|
□□□□ |③-④-|
□□□② |--⑤-|

18
□④⑤□ |--①-|
□□②□ |--②-|
□①□③ |--③-|
□□□□ |--④⑤|

19
□□□① |①---|
□□④□ |②---|
③⑤□□ |③-④-|
□②⑥□ |⑤-⑥-|

20
□□□② |--①-|
①③⑥□ |--②-|
□⑤④□ |③-④-|
□□□□ |⑤-⑥-|

21
□①④□ |①---|
⑤③□□ |②---|
①□□□ |③-④-|
□□②□ |--⑤-|

22
□④⑤□ |--①-|
□□②□ |--②-|
□①□③ |--③-|
□□□□ |--④⑤|

23
□□□① |①---|
⑥□④□ |②---|
③□□□ |③-④-|
⑤②□□ |⑤-⑥-|

24
②⑤④③ |--①-|
□②□⑥ |--②-|
□□□① |③④⑤-|
⑦□①□ |⑥-⑦-|

25
④□□□ |①---|
□⑥③□ |②-③-|
④①①□ |④---|
□②⑤□ |⑤-⑥-|

26
□①③□ |--①-|
③□□① |②---|
⑤□□□ |③-④-|
②⑤□④ |--⑤-|

27
④④□□ |①---|
□⑥③□ |②-③-|
□②⑤① |④---|
□□①□ |⑤-⑥-|

28
□③①□ |--①-|
③□□① |②---|
□□⑥⑤ |③-④-|
□②④□ |--⑤⑥|

29
③□□□ |①---|
□⑤②□ |②---|
③①□□ |③---|
□□④□ |④-⑤-|

30
□①③□ |--①-|
③□□① |②---|
⑤□□□ |③-④-|
②⑤□④ |--⑤-|

31
④④□□ |①---|
⑥□③⑥ |②-③-|
□②□① |④-⑤-|
□□①⑤ |--⑥-|

32
□□①□ |--①-|
□②③□ |②-③-|
□④⑤□ |④-⑤-|
□⑥⑦□ |⑥-⑦-|

33
①□□□ |①---|
□③□□ |--②-|
②□□② |--③-|
①□□□

34
□□□① |①---|
□□④□ |②---|
□②②□ |③-④-|
□③□①

35
①□②□ |①---|
④□□□ |②-③-|
④□□③ |--④-|
①□□□

36
□□③① |--①-|
□□□□ |--②-|
□□④□ |③-④-|
□②①③

37
①□□□ |①---|
□③□□ |--②-|
②□□② |--③-|
①□□□

38
□□□① |①---|
□□④□ |②---|
□②②□ |③-④-|
□③□①

39
①④②□ |①---|
□□□□ |②-③-|
□□□③ |--④-|
①□③□

40
□□□□ |①---|
⑤⑤③③ |②-③-|
①④②□ |--④-|
□①□□ |⑤---|

41
①□□□ |①---|
⑤□③⑤ |--②-|
□④□② |③-④-|
①□□□ |--⑤-|

42
⑤①②⑤ |①---|
□□□□ |②-③-|
③□□③ |--④-|
④①②④ |--⑤-|

43
□④②⑤ |①---|
□①①② |②-③-|
③④□□ |--④-|
□③□⑤ |--⑤-|

44
②□□⑤ |--①-|
④③□④ |②-③-|
④□①④ |--④-|
②□□⑤ |--⑤-|

45
③□□□ |--①-|
⑥④①□ |②--③|
□□⑦⑤ |④-⑤-|
②□□□ |⑥--⑦|

46
⑤④□③ |①-②-|
□□□① |--③-|
□③□④ |--④-|
⑤②□□ |--⑤-|

47
□□□③ |--①-|
□①④⑥ |②--③|
⑤⑦□□ |④-⑤-|
□□□② |⑥--⑦|

48
③□③⑤ |①-②-|
①□□□ |--③-|
④□④□ |--④-|
□□②⑤ |--⑤-|

49
⑤③□□ |--①-|
□□④② |②-③-|
□④□□ |--④-|
⑤①③□ |--⑤-|

50
□③②□ |--①-|
①□□③ |②---|
④□□② |③---|
□□④□ |④---|

51
④⑤⑥□ |①-②-|
⑤③□⑥ |③---|
⑥□②⑤ |④---|
①⑥⑤④ |⑤-⑥-|

52
③□□② |--①-|
□□□□ |--②-|
□①①□ |--③-|
②④④③ |--④-|

53
□□□□ |①---|
①⑤④① |②---|
②③⑤② |③-④-|
⑤□□□ |--⑤-|

54
□②□② |--①-|
□④□① |--②-|
②□□□ |--③-|
□①③① |--④-|

55
⑥□①□ |①---|
②□④② |②---|
□⑤□③ |③-④-|
⑥□□□ |⑤-⑥-|

56
□②②① |--①-|
□□□□ |--②-|
④□□④ |--③-|
□③③① |--④-|

57
□□④□ |①---|
①③□① |②---|
⑤②②⑤ |③-④-|
□□□□ |--⑤-|

58
□□⑥⑥ |--①-|
①⑤④① |--②-|
□⑤④□ |③-④-|
③③②② |⑤-⑥-|

59
①①□□ |①-②③|
⑤⑨□③ |-④⑤-|
④□⑧② |⑥-⑦-|
⑦□□⑥ |⑧-⑨-|

60
④③②① |①②③④|
□□□⑥ |-⑤⑥-|
⑨□⑩⑤ |⑦-⑧-|
□⑦□⑧ |⑨-⑩-|

61
□③⑤□ |①-②③|
⑧②④⑦ |-④⑤-|
□□□□ |⑥-⑦-|
①⑥①⑨ |⑧-⑨-|

62
⑥⑧⑦⑨ |①②③④|
□⑩⑤⑪ |-⑤⑥⑦|
③⑫④⑬ |⑧⑨⑩⑪|
①⑭②⑮ |⑫⑬⑭⑮|

63
□□□□ |①-②③|
①⑦⑥⑧ |-④⑤-|
⑤□③□ |⑥-⑦-|
④⑨②□ |⑧-⑨-|

64
④③②① |①②③④|
□⑨⑩□ |-⑤⑥-|
□□⑧⑥ |⑦-⑧-|
⑦□□⑤ |⑨-⑩-|

65
⑤⑦⑥③ |①-②③|
④□□② |-④⑤-|
⑨□□⑧ |⑥-⑦-|
□①①□ |⑧-⑨-|

66
□⑪□⑤ |①②③④|
□⑨⑩⑥ |-⑤⑥-|
□⑦⑧□ |⑦⑧⑨⑩|
④③②① |⑪---|

67
②⑥□□ |①---|
⑥□□⑤ |②---|
②④□① |③-④-|
□□③① |⑤-⑥-|

68
□□□③ |--①-|
□④③□ |--②-|
②□①□ |--③-|
□②□① |--④-|

69
②⑤⑥□ |①---|
⑥□□④ |②---|
□③⑥① |③-④-|
②□①□ |⑤-⑥-|

70
④□④② |--①-|
□②①□ |--②-|
④③④② |--③-|
③①③① |--④-|

71
□③□⑤ |----|
②□④□ |①---|
□□□□ |②-③-|
□①⑤① |④-⑤-|

72
②□□□ |--①-|
□③□□ |--②-|
□①①□ |--③-|
□②□④ |④---|

73
⑤①□③ |①---|
④⑥□① |②-③-|
①□□④ |④---|
②□①□ |⑤-⑥-|

74
□③③⑤ |--①-|
□□□① |②---|
□□②□ |③-④-|
□④□□ |--⑤-|

75
⑥□□□ |①---|
⑤□□④ |②-③-|
②□③□ |④---|
①⑥□① |⑤-⑥-|

76
⑧②④□ |①-②-|
□①③□ |③-④-|
□⑦⑥⑤ |--⑤⑥|
⑧□②④ |⑦-⑧-|

77
□□□③ |--①-|
①⑦④□ |②--③|
⑤□□□ |④-⑤-|
□□②⑥ |⑥--⑦|

78
①④□⑤ |①-②-|
④□□② |--③-|
□□□③ |--④-|
□□③⑤ |--⑤-|

79
③□□□ |--①-|
□④⑦① |②--③|
□□□⑤ |④-⑤-|
⑥②□□ |⑥--⑦|

80
⑤③□① |①-②-|
③□□□ |--③-|
②□□④ |--④-|
□⑤④□ |--⑤-|

81
□□⑤□ |--①-|
④②□□ |②-③-|
④□③□ |--④-|
①□□⑤ |--⑤-|

82
□⑤□② |--①-|
□③③□ |②---|
④□□② |③---|
⑤①□□ |④-⑤-|

83
□□□⑤ |①-②-|
④□□③ |③---|
⑥②□□ |④---|
□□⑤① |⑤-⑥-|

84
⑥⑭⑨⑬ |①②③④|
⑩②①⑤ |⑤⑥⑦⑧|
⑯⑧⑦⑪ |⑨⑩⑪⑫|
⑫④⑮③ |⑬⑭⑮⑯|

85
□□□□ |①---|
⑧③①⑥ |②-③-|
□⑤□□ |④⑤⑥-|
⑦②□④ |⑦-⑧-|

86
④⑩□② |①-②-|
□□⑥⑨ |③-④-|
③⑦□① |⑤--⑥-⑦|
□□⑤⑧ |⑧--⑨-⑩|

87
□□□② |①-②-|
④⑦□⑨ |③-④-|
□□⑥① |⑤⑥⑦-|
③⑤□⑧ |⑧-⑨-|

88
②□⑩④ |①-②-|
⑨⑥□□ |③-④-|
①□⑦③ |⑤--⑥-⑦|
⑧⑤□□ |⑧--⑨-⑩|

89
②□□□ |①-②-|
⑨□⑦④ |③-④-|
①⑥□□ |⑤⑥⑦-|
⑧□⑤③ |⑧-⑨-|

90
④⑩□② |①-②-|
□□⑥⑨ |③-④-|
③⑦□① |⑤--⑥-⑦|
□□⑤⑧ |⑧--⑨-⑩|

91
⑧□□② |①-②-|
□④⑥□ |③-④-|
⑦□□① |⑤-⑥-|
□③⑤□ |⑦-⑧-|

92
⑯⑩⑨⑦ |①②③④|
④⑧⑮③ |⑤⑥⑦⑧|
⑭②⑤⑪ |⑨⑩⑪⑫|
⑥⑫⑬① |⑬⑭⑮⑯|

93
□⑧□⑦ |①-②③|
③⑥□⑤ |-④⑤-|
□②④⑨ |⑥-⑦-|
□□□① |⑧-⑨-|

94
⑧⑩□⑨ |①②③④|
⑥□□□ |-⑤⑥-|
□⑤⑦□ |⑦-⑧-|
①②③④ |⑨-⑩-|

95
□□⑤□ |①-②③|
⑧③①④ |-④⑤-|
②□□⑦ |⑥-⑦-|
□⑥⑨□ |⑧-⑨-|

96
⑧⑥⑦⑨ |①②③④|
□⑩⑪⑤ |-⑤⑥⑦|
⑫③④⑬ |⑧⑨⑩⑪|
①⑭⑮② |⑫⑬⑭⑮|

97
□□□□ |①-②③|
①⑦⑧⑥ |-④⑤-|
□⑤③□ |⑥-⑦-|
④⑨□② |⑧-⑨-|

98
④③②① |①②③④|
□□⑩□ |-⑤⑥-|
⑨□□⑥ |⑦-⑧-|
⑦□⑤⑧ |⑨-⑩-|

99
⑧③⑤⑨ |①-②③|
②⑥□④ |-④⑤-|
□①①⑦ |⑥-⑦-|
□□□□ |⑧-⑨-|

100
⑫⑬⑭⑮ |①②③④|
⑪⑩⑨⑧ |-⑤⑥⑦|
⑦⑥⑤□ |⑧⑨⑩⑪|
①②③④ |⑫⑬⑭⑮|

101
□⑨□□ |①-②③|
□□□□ |-④⑤-|
⑦⑤⑧③ |⑥-⑦-|
①④②⑥ |⑧-⑨-|

102
⑧□⑨⑦ |①②③④|
④③②① |-⑤⑥-|
□□□⑤ |⑦--⑧|
□⑧⑥⑨ |--⑨-|

103
□⑨□⑩ |①-②③|
□⑥⑦⑧ |④⑤⑥⑦|
②③④⑤ |⑧-⑨-|
①□□⑪ |⑩-⑪-|

104
⑩⑪⑫⑬ |①②③④|
⑦⑧⑨⑭ |⑤⑥⑦⑧|
④⑤⑥⑮ |⑨⑩⑪⑫|
①②③⑯ |⑬⑭⑮⑯|

105
⑨⑪⑩□ |①-②③|
⑥⑦⑧□ |④⑤⑥⑦|
□④⑤□ |⑧-⑨-|
①②③□ |⑩-⑪-|

106
□⑫□① |①②③-|
⑥⑪⑦② |④⑤⑥-|
⑤⑩⑧③ |⑦⑧⑨-|
④□⑨□ |⑩⑪⑫-|

107
④□⑤⑦ |--①②|
⑥□⑧□ |③-④⑤|
□⑨□③ |⑥-⑦-|
□②□① |⑧-⑨-|

108
□①⑥□ |--①-|
⑦⑤□② |-②--|
①□④□ |③④⑤⑥|
□③②□ |⑦---|

109
⑥⑧⑧④ |①-②-|
⑦□①⑤ |③-④-|
③①□② |⑤-⑥-|
⑥⑧⑧④ |⑦-⑧-|
最終更新:2024年03月25日 10:37