アットウィキロゴ
BPM:160
1
□□□□ |----|
□□□□ |----|
□□□□ |----|
□①□□ |①---|
2
□④①① |①-②-|
□②⑤□ |③---|
⑥□□③ |④-⑤-|
□□□□ |⑥---|
3
□□□① |①-②-|
□④□① |③---|
□②⑤□ |④-⑤-|
⑥□③□ |⑥---|
4
③□□< |①---|
③□□< |--②-|
□④□② |③---|
□□①① |④---|
5
□□□① |①---|
□□□① |----|
□□□□ |----|
□□②□ |②---|

1□□□
1□□□
□□□□
□□□□
6
①①④□ |①-②-|
□⑤②□ |③---|
③□□⑥ |④-⑤-|
□□□□ |⑥---|
7
①□□□ |①-②-|
①□□④ |③---|
□⑤②□ |④-⑤-|
□③⑥□ |⑥---|
8
□□□□ |①---|
∨□□□ |----|
□□②② |②---|
①①□③ |③---|

□□□□
□□□□
□□□□
2□□□
9
□□□□ |①---|
①①□□ |----|
①□□□ |②---|
□∧□□ |③-④-|

□□②②
□□□□
□□□□
□③④□

□□□□
□2□□
□□□□
□□□□
10
□□□□ |①---|
①□□① |----|
□□□□ |②---|
□□□∧ |--③-|

□□□□
□□□□
□□③□
□□□□

□□□□
□□□2
□□□□
□□□□
11
①①□□ |①---|
□□□□ |----|
□□□□ |----|
∧∧□□ |②---|

22□□
□□□□
□□□□
□□□□
12
□□□□ |①---|
④□□② |②---|
□□□□ |③---|
□③①□ |④---|
13
□□□□ |①---|
□□②□ |②---|
□⑤□① |③---|
④③□□ |④-⑤-|
14
□□③□ |①---|
□④□□ |②-③-|
□□①□ |④---|
⑤□□② |⑤---|
15
□□□□ |①---|
①□□① |----|
□□□□ |----|
∧□□∧ |②---|

□□□□
2□□2
□□□□
□□□□
16
□③□□ |①-②-|
□□②⑥ |③---|
①⑤□□ |④-⑤-|
□□④□ |⑥---|
17
□④□□ |①-②-|
④③④□ |③---|
□④②□ |④---|
①⑤□□ |--⑤-|
18
□⑤④□ |①-②-|
⑥□□③ |③-④-|
⑦□□② |⑤-⑥-|
□⑧①□ |⑦-⑧-|
19
□□□□ |①---|
>①①< |----|
>①①< |②---|
③□□□ |③---|

□□□□
□22□
□22□
□□□□
20
□②①① |①---|
①□□③ |②---|
□③□③ |③---|
□④□□ |④---|
21
③□②③ |①---|
③□□□ |②---|
□□①□ |③---|
□□□④ |④---|
22
□□②□ |①---|
□③□④ |②---|
③□①③ |③---|
①①□□ |④---|
23
□③③□ |①---|
∨□□∨ |----|
□②②□ |②---|
①①①① |③---|

□□□□
□□□□
□□□□
2□□2
24
□□④□ |①---|
①①□④ |--②-|
③□②① |③---|
□③□□ |④---|
25
④⑤⑤④ |①---|
②④③□ |②-③-|
□①□□ |④---|
①□□① |⑤---|
26
④③□③ |①---|
□□③□ |②---|
①□②□ |③---|
□①□① |④---|
27
□□□□ |①---|
∨□□∨ |----|
□①①□ |②---|
①□□① |③---|

□□□□
□□③③
□□□□
□□□□

□□□□
□□□□
□□□□
2□□2
28
①①④④ |①---|
⑤④□□ |②-③-|
⑤③□① |④---|
□□②□ |⑤---|
29
⑥⑥□⑤ |①-②-|
□④□□ |③-④-|
⑤□③⑤ |⑤---|
②□①① |⑥---|
30
□□⑤⑤ |①---|
①□④□ |②-③-|
④□③④ |④---|
①②□① |⑤---|
31
⑥□□□ |①-②-|
②⑥⑤□ |③-④-|
□①□⑤ |⑤---|
①④③① |⑥---|
32
④□③□ |①---|
③□□① |--②-|
①④①③ |③---|
②□□□ |④---|
33
⑥②⑤① |①-②-|
□⑤①⑥ |③-④-|
①⑥□⑤ |⑤---|
□④③□ |⑥---|
34
□□□□ |①---|
①□①□ |②---|
②□□② |③---|
□②□① |④---|

□④□□
④③□④
□□③□
③□□□
35
□□□□ |①---|
□②②□ |----|
②①□① |②---|
□□①□ |----|
36
∨∨①① |①---|
□□□□ |②---|
□□□□ |③-④⑤|
①①□□ |⑥-⑦-|

□□□□
⑦②④□
⑦⑤②③
□□⑥③

□□□□
□□□□
□□□□
33□□
37
□①④⑥ |①-②-|
⑦③□① |③-④-|
□□②⑤ |⑤-⑥-|
③⑤□⑦ |⑦---|
38
①③④⑤ |①-②-|
□□②□ |③④⑤-|
②□□□ |⑥-⑦-|
□□①□ |⑧⑨⑩-|

□□□□
⑥□□⑦
□□□⑥
⑦⑩⑨⑧
39
⑩⑧⑥③ |①②③④|
⑦⑤②⑩ |⑤⑥⑦⑧|
④①⑨□ |⑨---|
⑪□□□ |⑩-⑪-|
40
□□②□ |①---|
②①①□ |②---|
□□□③ |③---|
□③□□ |④⑤⑥⑦|

□□□④
□□⑤□
□⑥□□
⑦□□□
41
②□⑤□ |①-②-|
□□□④ |③-④-|
③□③□ |⑤---|
□⑤①① |⑥-⑦-|

□□□□
□□□□
□⑥□□
□□□⑦
42
□②□□ |①---|
□①①② |②---|
③□□□ |③---|
□□③□ |④⑤⑥⑦|

④□□□
□⑤□□
□□⑥□
□□□⑦
43
□⑤□② |①-②-|
④□□□ |③-④-|
□③□③ |⑤---|
①①⑤□ |⑥-⑦-|

□□□□
□□□□
□□⑥□
⑦□□□
44
②□□□ |①---|
□①①② |②-③-|
④④⑥⑥ |④---|
⑤□③④ |⑤-⑥-|
45
□□①① |①---|
□①③□ |②-③-|
②□□□ |④-⑤-|
□□□② |⑥-⑦-|

□□□⑦
④□□④
□④□⑥
⑥⑥⑤□
46
∨④③□ |①-②-|
□②□□ |③-④-|
①□①□ |⑤-⑥-|
□□□① |⑦-⑧-|

□□□□
□⑧⑤⑤
□⑤⑦□
□⑥□∧

□□□□
□□□8
4□□□
□□□□
47
①□①□ |①-②-|
□□□□ |③-④-|
∧□□① |⑤---|
□□□□ |⑥-⑦-|

□②□④
④□□□
□⑤⑤⑦
⑥□③□

4□□□
□□□□
□□□□
□□□□
48
□①①□ |①---|
□□□② |②-③-|
②□□□ |④---|
□④③④ |⑤⑥⑦⑧|

⑧⑦⑥⑤
□□□□
□□□□
□□□□
49
□□□□ |①-②-|
②□④□ |③-④-|
⑥①①③ |⑤---|
③⑤⑦⑤ |⑥-⑦-|
50
□①①□ |①---|
②□③□ |②-③-|
□□□④ |④---|
□④□② |⑤⑥⑦⑧|

⑧⑦⑥⑤
□□□□
□□□□
□□□□
51
□□⑧□ |①-②-|
③④⑤⑥ |③④⑤⑥|
□①①□ |⑦-⑧-|
⑦⑦□② |⑨⑩⑪⑫|

□□□□
□□□□
⑫⑪⑩⑨
□□□□
52
②□□② |①---|
□③□④ |②-③-|
□□□⑥ |④---|
⑤④①① |⑤-⑥-|
53
□①①③ |①---|
①③□□ |②-③-|
□□□□ |④-⑤-|
□②②□ |⑥-⑦-|

⑤⑦⑥□
□□④□
④⑥⑤⑦
□□□□
54
□□□□ |①---|
∨□□∨ |----|
□□□□ |----|
①①①① |②---|

□□□□
□□□□
□□□□
2□□2
55
□□①① |①---|
⑦②④□ |②---|
⑦⑤②③ |③-④⑤|
□□⑥③ |⑥-⑦-|
56
□①④⑥ |①-②-|
⑦③□① |③-④-|
□□②⑤ |⑤-⑥-|
③⑤□⑦ |⑦---|
57
①③④⑤ |①-②-|
□□②□ |③④⑤-|
②□□□ |⑥-⑦-|
□□①□ |⑧⑨⑩-|

□□□□
⑥□□⑦
□□□⑥
⑦⑩⑨⑧
58
⑩⑧⑥③ |①②③④|
⑦⑤②⑩ |⑤⑥⑦⑧|
④①⑨□ |⑨---|
□□□□ |⑩---|
59
⑦□□① |①---|
②①④□ |②---|
⑦⑤②□ |③-④⑤|
③□⑥③ |⑥-⑦-|
60
⑥①①④ |①-②-|
⑧③□③ |③-④-|
□⑤□⑨ |⑤-⑥-|
⑦②⑤⑦ |⑦-⑧⑨|
61
⑥⑩⑨⑧ |①-②-|
⑦②⑦② |③④⑤-|
③④⑤□ |⑥-⑦-|
□①□⑥ |⑧⑨⑩-|
62
□⑬□⑫ |①②③④|
⑧⑩⑪□ |⑤⑥⑦⑧|
⑨⑦⑥④ |⑨⑩⑪⑫|
①②③⑤ |⑬-⑭⑮|

□□□□
□□□⑭
□□□⑮
□□□□
63
③□③⑤ |①-②-|
□□□□ |③-④-|
⑤□④□ |⑤---|
②②□① |⑥⑦⑧⑨|

□⑥□□
□⑦□□
□⑧□□
□⑨□□
64
②⑤②□ |①-②-|
④□□③ |③-④-|
③□⑤① |⑤---|
□□④① |⑥-⑦-|

□□□□
□□□□
□⑦□□
⑦□□⑥
65
②③□③ |①-②-|
④②①⑤ |③-④-|
⑤□□① |⑤---|
□□□□ |⑥⑦⑧⑨|

□□⑥□
□□⑦□
□□⑧□
□□⑨□
66
③②⑦□ |①-②-|
④⑦□□ |③④⑤⑥|
⑤⑧□□ |⑦-⑧-|
⑥①□① |⑨⑩⑪⑫|

□□□⑨
□□□⑩
□□□⑪
□□□⑫
67
④②□④ |①---|
□□③⑥ |②-③-|
③⑥②□ |④---|
⑤①①□ |⑤-⑥-|
68
□①①③ |①---|
①③□□ |②-③-|
□□□□ |④-⑤-|
□②②□ |⑥-⑦-|

⑤⑦⑥□
□□④□
④⑥⑤⑦
□□□□
69
□□□□ |①---|
∨□□∨ |----|
□□□□ |----|
①①①① |②---|

□□□□
□□□□
□□□□
□②□□

□□□□
□□□□
□□□□
2□□2
70
□④①① |①-②-|
□②⑤□ |③---|
⑥□□③ |④-⑤-|
□□□□ |⑥---|
71
□□□① |①-②-|
□④□① |③---|
□②⑤□ |④-⑤-|
⑥□③□ |⑥---|
72
③□□< |①---|
③□□< |--②-|
□④□② |③---|
□□①① |④---|
73
□□□① |①---|
□□□① |----|
□□□□ |----|
□□②□ |②---|

1□□□
1□□□
□□□□
□□□□
74
①①④□ |①-②-|
□⑤②□ |③---|
③□□⑥ |④-⑤-|
□□□□ |⑥---|
75
①□□□ |①-②-|
①□□④ |③---|
□⑤②□ |④-⑤-|
□③⑥□ |⑥---|
76
□□□□ |①---|
∨□□□ |----|
□□②② |②---|
①①□③ |③---|

□□□□
□□□□
□□□□
2□□□
77
□□②② |①---|
①①□□ |----|
①□□□ |②---|
□∧□□ |③-④-|

□□□□
□□□□
□□□□
□③④□

□□□□
□2□□
□□□□
□□□□
78
□□□□ |①---|
①□□① |----|
□□③□ |②---|
□□□∧ |--③-|

□□□□
□□□2
□□□□
□□□□
79
①①①① |①---|
□□□□ |----|
□□□□ |②---|
∧∧∧∧ |----|

2222
□□□□
□□□□
□□□□
80
□□□□ |----|
□□□□ |----|
□□□□ |----|
□□□□ |----|
81
□□□□ |----|
□□□□ |----|
□□□□ |----|
□□□□ |----|
最終更新:2024年03月19日 22:11