アットウィキロゴ
恋とメロンとキューピット
まろん feat. キャサリン

BASIC

Level: 4
BPM: 162
Notes: 382

1
口口口口 |----|
口口口口 |----|
口口口口 |----|
口口口口 |----|
2
口口口口 |----|
口口口口 |----|
口口口口 |----|
口口口口 |----|
3
口口口口 |①---|
口④③口 |②---|
口②①口 |③---|
口口口口 |④---|
4
口②①口 |①---|
口口口口 |②---|
口口口口 |③---|
④④③③ |④---|
5
口口口口 |①---|
口②①口 |②---|
口④③口 |③---|
口口口口 |④---|
6
④④③③ |①---|
口口口口 |②---|
口口口口 |③---|
口②①口 |④---|
7
口口口口 |①---|
口④③口 |②---|
口②①口 |③---|
口口口口 |④---|
8
口口口口 |①---|
口口口口 |②---|
④④③③ |③---|
口②①口 |④---|
9
口口口口 |①---|
口②①口 |②---|
口④③口 |③---|
口口口口 |④---|
10
口②①口 |①---|
④④③③ |②---|
口口口口 |③---|
口口口口 |④---|
11
①口口① |----|
口口口口 |----|
口口口口 |----|
口口口口 |①---|
12
口口口口 |①---|
口④③口 |②---|
口②①口 |③---|
口口口口 |④---|
13
①口口① |①---|
②口口② |②---|
③口口③ |③---|
口口口口 |----|
14
口口口口 |①---|
口③④口 |②---|
口①②口 |③---|
口口口口 |④---|
15
④口口④ |①---|
③口口③ |②---|
②口口② |③---|
①口口① |④---|
16
口口口口 |①---|
口④③口 |②---|
口②①口 |③---|
口口口口 |④---|
17
④②①④ |①---|
③口口③ |②---|
口口口口 |③---|
口口口口 |④---|
18
口③④口 |①---|
口口口口 |②---|
口口口口 |③---|
口①②口 |④---|
19
口口口口 |①---|
②①①② |----|
②①①② |②---|
口口口口 |----|
20
②口口② |①---|
口①①口 |----|
口口口口 |②---|
口口口口 |----|
21
口口口口 |①---|
口口口口 |----|
②②口口 |②---|
口口①口 |----|
22
口③②口 |①---|
口口①① |----|
口口口口 |②---|
口口口口 |③---|
23
①口口口 |①---|
口口口口 |----|
口口②② |②---|
口口口口 |----|
24
口②③口 |①---|
①①口口 |----|
口口口口 |②---|
口口口口 |③---|
25
②口口① |①---|
④口口③ |②---|
口口口口 |③---|
口口口口 |④---|
26
口口口口 |①---|
口口口口 |②---|
②口口① |③---|
④口口③ |④---|
27
口口口口 |①---|
口口口口 |----|
②①①② |②---|
②①①② |----|
28
②①①② |①---|
②①①② |----|
口口口口 |②---|
口口口口 |----|
29
口口口口 |①---|
口口口口 |②---|
口④③口 |③---|
②口口① |④---|
30
口④③口 |①---|
②口口① |②---|
口口口口 |③---|
口口口口 |④---|
31
①口口② |①---|
口③④口 |②---|
口口口口 |③---|
口口口口 |④---|
32
口口口口 |①---|
口口口口 |②---|
①口口② |③---|
口③④口 |④---|
33
②②口口 |①---|
口口口口 |----|
口口①① |②---|
口口口口 |----|
34
口口②② |①---|
口口口口 |----|
①①口口 |②---|
口口口口 |----|
35
口口口口 |①---|
②①①② |----|
②①①② |②---|
口口口口 |----|
36
口④④口 |①---|
口③③口 |②---|
口②②口 |③---|
口①①口 |④---|
37
④口口③ |①---|
口口口口 |②---|
②口口① |③---|
口口口口 |④---|
38
口④④口 |①---|
口②①口 |②---|
口口口口 |③---|
口③③口 |④---|
39
口口口口 |①---|
③口口④ |②---|
口口口口 |③---|
①口口② |④---|
40
口③③口 |①---|
口口口口 |②---|
口①②口 |③---|
口④④口 |④---|
41
口口口口 |①---|
口口口口 |②---|
④③②① |③---|
口口口口 |④---|
42
④口口④ |①---|
口口③口 |②---|
口②①口 |③---|
口口口口 |④---|
43
口口口口 |①---|
口②口④ |②---|
①口③口 |③---|
口口口口 |④---|
44
口④④口 |①---|
口③③口 |②---|
口②②口 |③---|
口①①口 |④---|
45
③③③③ |①---|
②口口② |②---|
①口口① |③---|
口口口口 |----|
46
口口口口 |①---|
③①①② |----|
口①①口 |②---|
口口口口 |③---|
47
口口口口 |①---|
口口口口 |②---|
②口口① |③---|
口③③口 |----|
48
口①口口 |①---|
口口②口 |②---|
口③口口 |③---|
口口④口 |④---|
49
口口口口 |①---|
①口口① |----|
①口口① |----|
口口口口 |----|
50
口口口口 |①---|
口口口口 |②---|
口②口④ |③---|
①口③口 |④---|
51
③口口③ |①---|
口①②口 |②---|
口口口口 |③---|
口口口口 |----|
52
口口口口 |①---|
②口口② |----|
②①①② |②---|
口口口口 |----|
53
②①①② |①---|
口①①口 |----|
口口口口 |②---|
口口口口 |----|
54
口口口口 |①---|
③①①② |----|
口①①口 |②---|
口口口口 |③---|
55
口口口口 |①---|
口口口口 |②---|
②口口① |③---|
口③③口 |----|
56
口①口口 |①---|
口口②口 |②---|
口③口口 |③---|
口口④口 |④---|
57
口口口口 |①---|
①口口① |----|
①口口① |----|
口口口口 |----|
58
口口口口 |①---|
口口口口 |②---|
口②口④ |③---|
①口③口 |④---|
59
③口口③ |①---|
口①②口 |②---|
口口口口 |③---|
口口口口 |----|
60
口口口口 |①---|
②口口② |----|
②①①② |②---|
口口口口 |----|
61
②①①② |①---|
口①①口 |----|
口口口口 |②---|
口口口口 |----|
62
口口口口 |①---|
口口口② |----|
口①口口 |②---|
口口口口 |----|
63
②①口② |①---|
口口口口 |----|
口口口口 |----|
口口口口 |②---|
64
口口口口 |①---|
口④③口 |②---|
口②①口 |③---|
口口口口 |④---|
65
①口口① |①---|
②口口② |②---|
③口口③ |③---|
口口口口 |----|
66
口口口口 |①---|
口③④口 |②---|
口①②口 |③---|
口口口口 |④---|
67
④口口④ |①---|
③口口③ |②---|
②口口② |③---|
①口口① |④---|
68
口口口口 |①---|
口④③口 |②---|
口②①口 |③---|
口口口口 |④---|
69
④②①④ |①---|
③口口③ |②---|
口口口口 |③---|
口口口口 |④---|
70
口③④口 |①---|
口口口口 |②---|
口口口口 |③---|
口①②口 |④---|
71
口口口口 |①---|
②①①② |----|
②①①② |②---|
口口口口 |----|
72
④③②① |①---|
口口口口 |②---|
口口口口 |③---|
口口口口 |④---|
73
口口口口 |①---|
①②③④ |②---|
口口口口 |③---|
口口口口 |④---|
74
口口口口 |①---|
口口口口 |②---|
口④③口 |③---|
口②①口 |④---|
75
口口口口 |--①-|
②口口② |----|
①口口① |②---|
口口口口 |----|
76
①②③④ |①---|
口口口口 |②---|
口口口口 |③---|
口口口口 |④---|
77
口口口口 |①---|
①口口② |②---|
口③③口 |③---|
口口口口 |----|
78
口口口④ |①---|
③口口口 |②---|
口口口② |③---|
①口口口 |④---|
79
口口口口 |①---|
②①①② |----|
②①①② |②---|
口口口口 |----|
80
②口口② |①---|
口①①口 |----|
口口口口 |②---|
口口口口 |----|

accuracy: 100%
最終更新:2024年07月20日 01:38