アットウィキロゴ
恋とメロンとキューピット
まろん feat. キャサリン

ADVANCED

Level: 8
BPM: 162
Notes: 630

1
口口口口 |----|
口口口口 |----|
口口口口 |----|
口口口口 |----|
2
口口口口 |----|
口口口口 |----|
口口口口 |----|
口口口口 |----|
3
④④①① |①--②|
口口口口 |--③-|
口⑥③口 |④--⑤|
口②⑤口 |--⑥-|
4
口口①① |①--②|
⑥口口⑦ |--③-|
④口③⑤ |④-⑤-|
口②口口 |⑥-⑦-|
5
④④①① |①--②|
口口口口 |--③-|
口③⑥口 |④--⑤|
口⑤②口 |--⑥-|
6
口口①① |①--②|
⑦口口⑥ |--③-|
⑤③口④ |④-⑤-|
口口②口 |⑥-⑦-|
7
④①④① |①--②|
口口口口 |--③-|
口③⑥口 |④--⑤|
口⑤②口 |--⑥-|
8
口①口① |①--②|
⑦口口⑥ |--③-|
⑤③口④ |④-⑤-|
口口②口 |⑥-⑦-|
9
④①④① |①--②|
口④①口 |--③-|
口⑥③口 |④--⑤|
口②⑤口 |--⑥-|
10
口①口① |①--②|
⑥口①⑦ |--③-|
④口③⑤ |④-⑤-|
口②口口 |⑥-⑦-|
11
②口口② |----|
口口口口 |----|
口①①口 |--①-|
口口口口 |②---|
12
口⑤④口 |①-②-|
①②③口 |③---|
口口口口 |④-⑤-|
口⑦⑥口 |⑥-⑦-|
13
口口口口 |①-②-|
口⑤⑤口 |③-④-|
④③②① |⑤---|
口口口口 |----|
14
口⑧④口 |①-②-|
⑦口口③ |③-④-|
⑥口口② |⑤-⑥-|
口⑤①口 |⑦-⑧-|
15
⑥口口⑥ |①-②-|
口④①口 |③-④-|
口③②口 |--⑤-|
⑤口口⑤ |⑥---|
16
口口口口 |①-②-|
⑥口③⑦ |③---|
④口②⑤ |④-⑤-|
口口①口 |⑥-⑦-|
17
口④口口 |①-②-|
口③口口 |③-④-|
⑤②口⑤ |⑤---|
口①口口 |----|
18
口④⑤口 |①-②-|
口⑥③口 |③-④-|
口②⑦口 |⑤-⑥-|
口⑧①口 |⑦-⑧-|
19
④口口④ |①--②|
口口③③ |--③-|
②②口口 |④---|
口口①① |----|
20
口口口口 |①--②|
④③口④ |--③-|
口口②口 |④---|
口①口口 |----|
21
口②①口 |--①-|
⑥④③口 |②-③-|
⑥口⑤口 |④-⑤-|
口口口口 |--⑥-|
22
④⑤⑥口 |--①-|
口口口口 |②-③-|
口口口口 |--④-|
口③②① |⑤-⑥-|
23
口口口① |①-②-|
口②③⑦ |③-④-|
口④⑤⑦ |⑤-⑥-|
口⑥口口 |--⑦-|
24
口⑥⑤④ |--①-|
口口口口 |②-③-|
①②③口 |--④-|
口口口口 |⑤-⑥-|
25
①口口口 |①-②-|
口⑤④口 |③---|
③口口② |④-⑤-|
⑥口口⑥ |--⑥-|
26
③③口口 |--①-|
口口口④ |②-③-|
⑤口②口 |--④-|
⑤①口口 |⑤---|
27
④④口口 |①---|
②②口口 |②---|
口口③③ |③---|
口口①① |④---|
28
口口口口 |①--②|
④口口④ |--③-|
口口口口 |④---|
口③②① |----|
29
口②①口 |--①-|
⑥④③口 |②-③-|
⑥口⑤口 |④-⑤-|
口口口口 |--⑥-|
30
④⑤⑥口 |--①-|
口口口口 |②-③-|
口口口口 |--④-|
口③②① |⑤-⑥-|
31
口口口① |①-②-|
口②③⑦ |③-④-|
口④⑤⑦ |⑤-⑥-|
口⑥口口 |--⑦-|
32
口⑥⑤④ |--①-|
口口口口 |②-③-|
①②③口 |--④-|
口口口口 |⑤-⑥-|
33
①口⑤⑤ |①---|
②口口② |②---|
口口口口 |③-④-|
口④③口 |--⑤-|
34
口口口口 |①-②-|
口③④口 |③-④-|
口①②口 |--⑤-|
口⑦⑥⑤ |⑥-⑦-|
35
口口②口 |①---|
口口口② |②---|
③④⑤口 |③--④|
①口口口 |--⑤-|
36
①口口① |①---|
②口口② |②---|
③口口③ |③---|
④口口④ |④---|
37
口②②口 |--①-|
⑤口口⑤ |②---|
④①①④ |③--④|
③口口③ |--⑤-|
38
⑥口口⑥ |--①-|
⑤口③⑤ |②-③-|
④②口④ |④--⑤|
口口①口 |--⑥-|
39
口口口口 |--①-|
⑥口①⑥ |②-③-|
⑤②口⑤ |④--⑤|
④口③④ |--⑥-|
40
④口口④ |--①-|
⑤③口⑤ |②-③-|
⑥口②⑥ |④--⑤|
口①口口 |--⑥-|
41
口②②口 |--①-|
口口口口 |②---|
口口口口
口①口口

口口口口
③口⑥③
口⑤口口 |③-④⑤|
⑦⑦④口 |⑥-⑦-|
42
⑧④③口 |①-②-|
⑧口⑦口 |③-④-|
②⑥口① |⑤⑥-⑦|
口口⑤口 |⑧---|
43
口⑤⑥② |--①-|
口③口② |②-③-|
④③口④ |④-⑤⑥|
①①口口 |----|
44
⑧⑦⑦⑧ |①-②-|
⑥⑤⑤⑥ |③-④-|
④③③④ |⑤-⑥-|
②①①② |⑦-⑧-|
45
口④④口 |①-②-|
④③③④ |③---|
口③③口 |④---|
②①①② |----|
46
口口口口 |①---|
口口口口 |--②-|
口①①口
口口口②

③③口口
④④口口
⑤⑤口口 |③--④|
口口口口 |--⑤-|
47
口口①① |①--②|
口口②② |--③-|
口口③③
口口口口

⑤口口⑥
口口口口
口口口口 |④-⑤-|
口④④口 |⑥---|
48
口②口口 |①---|
⑤⑤①口 |②---|
口①④④ |③--④|
③③②口 |--⑤-|
49
①①①① |①---|
口口口口 |----|
口口口口 |----|
口口口口 |----|
50
口⑤④③ |①---|
口⑤④③ |--②-|
口②②口 |③--④|
①口口① |--⑤-|
51
⑤⑥口口 |①--②|
④口口④ |--③-|
①②③口 |④---|
①②③口 |--⑤⑥|
52
口口①口 |①---|
口③③口 |--②-|
口④④口 |③--④|
口⑤⑤② |--⑤-|
53
①②③① |①--②|
④口口④ |--③-|
①口口① |④---|
口⑤⑤口 |⑤---|
54
口口口口 |①---|
口口口口 |--②-|
口①①口
口口口②

③③口口
④④口口
⑤⑤口口 |③--④|
口口口口 |--⑤-|
55
口口①① |①--②|
口口②② |--③-|
口口③③
口口口口

⑤口口⑥
口口口口
口口口口 |④-⑤-|
口④④口 |⑥---|
56
口②口口 |①---|
⑤⑤①口 |②---|
口①④④ |③--④|
③③②口 |--⑤-|
57
①①①① |①---|
口口口口 |----|
口口口口 |----|
口口口口 |----|
58
口⑤④③ |①---|
口⑤④③ |--②-|
口②②口 |③--④|
①口口① |--⑤-|
59
⑤⑥口口 |①--②|
④口口④ |--③-|
①②③口 |④---|
①②③口 |--⑤⑥|
60
口口①口 |①---|
口③③口 |--②-|
口④④口 |③--④|
口⑤⑤② |--⑤-|
61
①②③① |①--②|
④口口④ |--③-|
①口口① |④---|
口口⑥⑤ |--⑤⑥|
62
②口③口 |①---|
口④口口 |--②-|
⑤口口口 |③--④|
口①口口 |--⑤-|
63
③口口③ |①---|
口口口口 |----|
口②②口 |--②-|
口口①① |③---|
64
口⑤④口 |①-②-|
①②③口 |③---|
口口口口 |④-⑤-|
口⑦⑥口 |⑥-⑦-|
65
口口口口 |①-②-|
口⑤⑤口 |③-④-|
④③②① |⑤---|
口口口口 |----|
66
口⑧④口 |①-②-|
⑦口口③ |③-④-|
⑥口口② |⑤-⑥-|
口⑤①口 |⑦-⑧-|
67
⑥口口⑥ |①-②-|
口④①口 |③-④-|
口③②口 |--⑤-|
⑤口口⑤ |⑥---|
68
口口口口 |①-②-|
⑥口③⑦ |③---|
④口②⑤ |④-⑤-|
口口①口 |⑥-⑦-|
69
口④口口 |①-②-|
口③口口 |③-④-|
⑤②口⑤ |⑤---|
口①口口 |----|
70
口④⑤口 |①-②-|
口⑥③口 |③-④-|
口②⑦口 |⑤-⑥-|
口⑧①口 |⑦-⑧-|
71
口口口口 |①--②|
口口③③ |--③-|
②②口口
口口①①

④口口④
口口口口
口口口口 |④---|
⑤⑥⑦⑧ |⑤⑥⑦⑧|
72
口③③口 |①---|
①④④② |②---|
①⑤⑤② |③--④|
口口口口 |--⑤-|
73
③口口③ |①--②|
④口口④ |--③-|
②口口② |④---|
①口口① |----|
74
口⑤①口 |①-②-|
口⑥②口 |③-④-|
口④⑧口 |⑤-⑥-|
口③⑦口 |⑦-⑧-|
75
①口口② |--①-|
③⑤⑤④ |-②--|
①⑤⑤② |③--④|
③口口④ |--⑤-|
76
①②③口 |①-②-|
口⑦⑥口 |③---|
口口口口 |④-⑤-|
⑤口口④ |⑥-⑦-|
77
④④③③ |①-②-|
口口口口 |③-④-|
②②①① |⑤---|
口⑤⑤口 |----|
78
④③②① |①-②-|
⑤⑥⑦⑧ |③-④-|
口口口口 |⑤-⑥-|
口口口口 |⑦-⑧-|
79
④④④④ |①--②|
③③口口 |--③-|
口口②② |④---|
①①口口 |----|
80
口口口口 |①--②|
口④③口 |--③-|
口②口口 |④---|
口⑤①口 |⑤---|

accuracy: 100%
最終更新:2024年07月20日 01:39