アットウィキロゴ
恋とメロンとキューピット
まろん feat. キャサリン

EXTREME

Level: 10.2
BPM: 162
Notes: 984

1
口口口口 |----|
口口口口 |----|
口口口口 |----|
口口口口 |----|
2
②口口① |----|
④口口③ |----|
口⑥⑤口 |①②③④|
口⑧⑦口 |⑤⑥⑦⑧|
3
口②③口 |①-②③|
口口①口 |--④-|
④口口①
④口口口

口⑧口⑤
⑧口口⑤
口⑥⑦口 |⑤-⑥⑦|
口口口口 |--⑧-|
4
④口口口 |①-②③|
口②③口 |--④-|
④口口①
口口①口

口⑧⑥口
口口口口
口口口口 |⑤-⑥-|
⑦⑤⑦⑤ |⑦-⑧-|
5
口口口① |①-②③|
④口口口 |--④-|
口②③①
口④口口

口⑥⑦口
口口口⑤
口⑧口口 |⑤-⑥⑦|
⑧口⑤口 |--⑧-|
6
④⑧⑥① |①-②③|
口②③口 |--④-|
④口口① |⑤-⑥-|
⑦⑤⑦⑤ |⑦-⑧-|
7
⑥⑩⑤① |①-②③|
⑩②⑦⑤ |④-⑤-|
⑥⑧③① |⑥-⑦⑧|
口④⑨口 |⑨-⑩-|
8
口口口① |①-②③|
口②⑤⑤ |④-⑤-|
④口③①
口口口口

⑦⑨⑦⑨
口口口口
口口口口 |⑥-⑦-|
⑧⑥⑧⑥ |⑧-⑨-|
9
⑤口口口 |①-②③|
①⑤②口 |④-⑤-|
①③口口
口口口④

口⑦⑥⑩
口口⑩⑥
口口⑧口 |⑥-⑦⑧|
口⑨口口 |⑨-⑩-|
10
口口口口 |①-②③|
⑤③口④ |④-⑤-|
⑤①口②
①口口口

⑦⑨⑦⑨
口口口口
口口口口 |⑥-⑦-|
⑧⑥⑧⑥ |⑧-⑨-|
11
口②②口 |----|
口①①口 |----|
②口口② |--①-|
口口口口 |②---|
12
④⑦⑥⑪ |①②③-|
④⑨⑧① |④--⑤|
口②⑩口 |⑥⑦⑧⑨|
⑤口③⑩ |⑩-⑪-|
13
口口口口 |①-②③|
②口⑤⑤ |④-⑤-|
①④口③
口口①口

⑦⑨⑦⑨
口口口口
口口口口 |⑥-⑦-|
⑧⑥⑧⑥ |⑧-⑨-|
14
④⑩⑩⑨ |①②-③|
③①⑨③ |--④-|
④⑧②⑦ |⑤⑥⑦⑧|
口⑥口⑤ |⑨-⑩-|
15
口⑨口⑩ |①②③④|
口⑥口⑤ |⑤⑥⑦⑧|
④⑧③⑦ |--⑨-|
②⑨①⑩ |⑩---|
16
口口口口 |①②③-|
⑤④口① |④--⑤|
②口口口
④口③口

⑪⑨⑧口
口口⑩⑪
口⑦⑥⑩ |⑥⑦⑧⑨|
口口口口 |⑩-⑪-|
17
口口口② |①-②③|
⑤③口口 |④-⑤-|
⑤口④口
①口①口

⑦⑨⑦⑨
口口口口
口口口口 |⑥-⑦-|
⑧⑥⑧⑥ |⑧-⑨-|
18
④口口口 |①②-③|
③口②③ |--④-|
④①口口
口口口口

口⑩⑤口
口⑥⑩口
口口⑦口 |⑤⑥⑦⑧|
口⑧⑨⑨ |⑨-⑩-|
19
口口口④ |①--②|
①③口② |--③-|
口②③④ |④---|
①口④口 |----|
20
④口口口 |①--②|
②口③① |--③-|
④③②口 |④---|
口④口① |----|
21
口口⑤口 |①-②-|
口②口③ |③-④-|
⑦⑥口口 |⑤-⑥-|
①口④① |--⑦-|
22
④口⑥① |--①-|
口⑤②口 |②-③-|
④口⑥口 |--④-|
口口③口 |⑤-⑥-|
23
口②口③ |①-②-|
口⑤口① |③-④-|
口口口⑦ |⑤-⑥-|
口④口⑥ |--⑦-|
24
③口口口 |--①-|
口⑥口④ |②-③-|
口②⑤口 |--④-|
①⑥口④ |⑤-⑥-|
25
④③口④ |①-②-|
③口口口 |③---|
①口⑤口 |④-⑤-|
⑥⑥②口 |--⑥-|
26
④口②口 |--①-|
口③③口 |②-③-|
口①口口 |--④-|
口口口⑤ |⑤---|
27
口①③口 |①---|
①②④③ |②---|
①④②③ |③---|
口①③口 |④---|
28
口②③口 |①--②|
口口口口 |--③-|
②口口③
①口口①

④口口⑨
口口⑤口
口⑧口口 |④-⑤-⑥-|
口⑥口⑦ |⑦-⑧-⑨-|
29
口③⑧⑥ |①-②-|
⑤①口⑧ |③-④-|
②⑦①③ |⑤-⑥-|
④口⑤口 |⑦-⑧-|
30
⑥②⑧④ |①-②-|
③⑦②口 |③-④-|
⑥⑦⑧③ |⑤-⑥-|
④①口⑤ |⑦-⑧-|
31
⑧口⑧③ |①-②-|
③⑧④① |③-④-|
⑤口⑥① |⑤-⑥-|
⑦②口⑤ |⑦-⑧-|
32
口②口② |①-②-|
③口口口 |③-④-|
口④口③
口①④口

口口口口
口⑧⑦⑥
口口⑦口 |⑤-⑥-|
⑤⑧口⑥ |⑦-⑧-|
33
②⑤口② |①---|
①④口③ |②---|
①③口④ |③-④-|
口④口③ |--⑤-|
34
③⑤②口 |①-②-|
①⑦④⑦ |③-④-|
②④①⑥ |--⑤-|
④⑥③⑤ |⑥-⑦-|
35
②口口② |①---|
①口口口 |②---|
①②②口
口口①口

口④⑤口
⑤口口④
口口口口 |③--④|
③口口③ |--⑤-|
36
④④④④ |①---|
④③②④ |②---|
①②③① |③---|
③①①② |④---|
37
口口口口 |①-②-|
口③口口 |③---|
①口口②
③口②口

④⑤⑥口
口口④口
口④口口 |④--⑤|
口⑤⑥④ |--⑥-|
38
口口口口 |--①-|
②①口③ |②-③-|
②口①③
口口口口

④口口⑤
口⑥⑥口
口⑥⑥口 |④--⑤|
④口口⑤ |--⑥-|
39
⑥③②⑤ |--①-|
④⑤⑥④ |②-③-|
③⑥⑤② |④--⑤|
④①①④ |--⑥-|
40
口口口口 |--①-|
③口口② |②-③-|
③口口②
口①①口

⑤⑤⑤⑤
口④口口
口口④口 |④--⑤|
⑥⑥⑥⑥ |--⑥-|
41
口口⑥⑥ |--①-|
①③③② |②---|
⑤①②⑦ |③-④⑤|
口口⑦④ |⑥-⑦-|
42
④②⑥⑧ |①-②-|
①③④口 |③-④-|
⑤⑦②口 |⑤⑥-⑦|
口口口⑧ |⑧---|
43
⑥②口口 |--①-|
①口②④ |②-③-|
口⑤口④ |④-⑤⑥|
⑥①③口 |----|
44
⑧④⑧④ |①-②-|
口⑦③口 |③-④-|
②⑥②⑥ |⑤-⑥-|
口①⑤口 |⑦-⑧-|
45
⑤③口③ |①-②-|
③④③④ |③---|
②口②口 |④-⑤-|
④①④⑥ |⑥---|
46
口①口① |①-②-|
④口③口 |③-④-|
④口①口
口②口口

口口⑤口
口口口⑥
口⑦⑦⑤ |⑤--⑥|
⑥口⑥口 |--⑦-|
47
①③③① |①--②|
⑤口②⑥ |--③-|
⑤口口⑥ |④-⑤-|
口②④② |⑥---|
48
①⑦口③ |①-②-|
⑥④②口 |③-④-|
⑤①③⑦ |⑤--⑥|
口⑤⑥口 |--⑦-|
49
②口⑤① |①-②-|
口口口⑤ |③-④⑤|
④②①口
③④口③

口⑦口口
⑦⑥⑥口
口⑨⑨⑧ |-⑥-⑦|
口口⑧口 |⑧-⑨-|
50
①口③① |①---|
④口⑤④ |②-③-|
②口口口 |④--⑤|
⑥口口口 |--⑥-|
51
口③③③ |①--②|
口口口口 |--③-|
口②口②
口①口①

口口口口
④④④⑦
⑥口口口 |④---|
口⑤口⑤ |⑤-⑥⑦|
52
①④②⑥ |①---|
口②④口 |②-③-|
⑤②口④ |④--⑤|
③⑤②口 |--⑥-|
53
④⑤⑥⑦ |①--②|
①②口① |--③-|
④①①⑦ |④-⑤-⑥-|
口④⑦③ |⑦---|
54
口口④口 |①-②-|
①口①口 |③-④-|
口①④口
③口口②

⑤⑥口口
口⑤⑦口
⑥⑦口口 |⑤--⑥|
口口⑥口 |--⑦-|
55
③口②口 |①--②|
①③口① |--③-|
口口口口
②②口口

口⑤口口
口口口⑥
④⑤口④ |④-⑤-|
口口口⑥ |⑥---|
56
③⑦⑥① |①-②-|
⑦③①⑥ |③-④-|
口口口口 |⑤--⑥|
⑤④②⑤ |--⑦-|
57
②口⑤① |①-②-|
口口口⑤ |③-④⑤|
④②①口
③④口③

口⑦口口
⑦⑥⑥口
口⑨⑨⑧ |-⑥-⑦|
口口⑧口 |⑧-⑨-|
58
①④④① |①---|
⑤口口③ |②-③-|
口口口⑥ |④--⑤|
②口口口 |--⑥-|
59
①③③① |①--②|
口③口② |--③-|
口③口口
口口口②

⑤口口口
④口④⑦
④口④⑥ |④---|
④④④口 |⑤-⑥⑦|
60
口②口① |①---|
②口②口 |②-③-|
口口口口
口口口③

④口⑤⑥
口口口⑥
④⑤口⑥ |④--⑤|
口⑤⑥口 |--⑥-|
61
口①口口 |①--②|
①口③口 |--③-|
口口②口
②口口③

④口④口
口口口口
口④⑥口 |④---|
口⑤口口 |--⑤⑥|
62
口口口③ |①---|
口①④口 |--②-|
口⑤口口 |③--④|
口口口② |--⑤-|
63
①⑦⑦③ |①-②-|
⑤⑥⑥口 |③-④-|
⑦口口⑦ |⑤-⑥-|
②口口④ |⑦---|
64
④⑦⑥⑪ |①②③-|
④⑨⑧① |④--⑤|
口②⑩口 |⑥⑦⑧⑨|
⑤口③⑩ |⑩-⑪-|
65
口口口口 |①-②③|
②口⑤⑤ |④-⑤-|
①④口③
口口①口

⑦⑨⑦⑨
口口口口
口口口口 |⑥-⑦-|
⑧⑥⑧⑥ |⑧-⑨-|
66
④⑩⑩⑨ |①②-③|
③①⑨③ |--④-|
④⑧②⑦ |⑤⑥⑦⑧|
口⑥口⑤ |⑨-⑩-|
67
口⑨口⑩ |①②③④|
口⑥口⑤ |⑤⑥⑦⑧|
④⑧③⑦ |--⑨-|
②⑨①⑩ |⑩---|
68
口口口口 |①②③-|
⑤④口① |④--⑤|
②口口口
④口③口

⑪⑨⑧口
口口⑩⑪
口⑦⑥⑩ |⑥⑦⑧⑨|
口口口口 |⑩-⑪-|
69
口口口② |①-②③|
⑤③口口 |④-⑤-|
⑤口④口
①口①口

⑦⑨⑦⑨
口口口口
口口口口 |⑥-⑦-|
⑧⑥⑧⑥ |⑧-⑨-|
70
④口口口 |①②-③|
③口②③ |--④-|
④①口口
口口口口

口⑩⑤口
口⑥⑩口
口口⑦口 |⑤⑥⑦⑧|
口⑧⑨⑨ |⑨-⑩-|
71
口口口口 |①--②|
①③口② |--③-|
口②③口
①口口口

口⑥⑦④
⑤口口⑧
口口口④ |④---|
口口④口 |⑤⑥⑦⑧|
72
①⑪⑩④ |①②③-|
⑪⑨⑧⑩ |④--⑤|
①⑦⑥④ |⑥⑦⑧⑨|
⑤③口② |⑩-⑪-|
73
⑤口口③ |①-②③|
口口口口 |-④⑤-|
①口口①
口②④口

口口⑨口
⑨口⑥口
口⑦口⑩ |⑥⑦⑧-|
口⑩口⑧ |⑨-⑩-|
74
⑩②⑨① |①②③④|
⑫④⑪③ |⑤⑥⑦⑧|
⑧⑯⑦⑮ |⑨⑩⑪⑫|
⑥⑭⑤⑬ |⑬⑭⑮⑯|
75
③①⑤① |--①-|
⑤②③④ |-②--|
③④①⑤ |③--④|
②⑤②④ |--⑤-|
76
④②⑪① |①②③-|
⑩⑥⑦口 |④--⑤|
④⑧⑨⑪ |⑥⑦⑧⑨|
口⑩③⑤ |⑩-⑪-|
77
⑥④口⑥ |①-②③|
口口口③ |④-⑤-|
②口口⑦ |⑥---|
①口①⑤ |⑦---|
78
⑩③⑤⑨ |①②-③|
③⑥④口 |--④-|
⑩①⑦⑨ |⑤⑥⑦⑧|
口⑧②④ |⑨-⑩-|
79
⑦⑥⑤④ |①--②|
①④②口 |--③-|
口①口④ |④-⑤-⑥-|
①口④③ |⑦---|
80
口口口口 |①--②|
②口口① |--③-|
口口③口
口①口口

④口口④
口口口口
口口口口 |④---|
口⑤口口 |⑤---|

accuracy: 100%
最終更新:2024年07月20日 01:39