アットウィキロゴ
BPM:160

1
□□□□ |----|
□□□□ |----|
□□□□ |----|
□□□□ |----|
2
□□□① |①--②|
③□□□ |--③-|
□□⑥⑤ |-④--|
□④②□ |⑤-⑥-|
3
①□□③ |①--②|
□⑥□□ |--③-|
⑤②□□ |-④--|
□□④□ |⑤-⑥-|
4
□③①□ |①--②|
□□⑥⑤ |--③-|
□□□② |-④--|
④□□□ |⑤-⑥-|
5
①⑥□③ |①--②|
⑤□□□ |--③-|
□②□□ |-④--|
□□④□ |⑤-⑥-|
6
□□□□ |①--②|
□③①□ |--③-|
□□⑥⑤ |-④--|
④□□② |⑤-⑥-|
7
□∨②□ |----|
□□∧□ |----|
□□□□ |①---|
□①□□ |②---|

□□□□
□□□□
□□□□
□2□□
8
①□□< |①--②|
□③□① |--③-|
□□⑥⑤ |-④--|
④□②□ |⑤-⑥-|

□□1□
□□□□
□□□□
□□□□
9
□①③□ |①--②|
□□□□ |--③-|
②□□④ |-④--|
>□□① |⑤-⑥-|

□□□□
□□□□
□⑥□□
⑤□□□

1□□□
□□□□
□□□□
□□□□
10
□□□① |①--②|
③□□□ |--③-|
□□⑥⑤ |-④--|
□④②□ |⑤-⑥-|
11
①□□③ |①--②|
□⑥□□ |--③-|
⑤②□□ |-④--|
□□④□ |⑤-⑥-|

□□□□
□□□□
□□□□
□□□5
12
□∨①□ |①--②|
□□□□ |--③-|
□□□② |-④--|
□①□□ |⑤-⑥-|

□③□□
□□⑥⑤
□□□□
④□□□
13
①⑥□③ |①--②|
⑤□□□ |--③-|
□②□□ |-④--|
□□④□ |⑤-⑥-|
14
□□□□ |①--②|
□③①□ |--③-|
□□⑥⑤ |-④--|
④□□② |⑤-⑥-|

□□□□
□□□□
□□□□
□6□□
15
□②②□ |--①-|
③⑤④□ |②---|
①⑦⑥□ |--③-|
□③□□ |④⑤⑥⑦|
16
>□□① |---①|
□□□□ |----|
□□□□ |--②-|
□□□□ |③-④-|

□□④□
>③∧□
∨□□□
②□□□

□□□2
□4□□
□□□□
3□□□
17
□□□□ |①-②-|
□□②□ |③-④-|
①<∧□ |---⑤|
□□□□ |----|

□□□□
□∨□□
□③□□
>□□⑤

□□1□
□□3□
24□□
□□□□
18
□□□③ |--①-|
②<□∧ |②-③-|
□∨□□ |④-⑤-|
□①□□ |⑥-⑦-|

□□⑥□
□⑤∧∨
∨∧□⑦
④□□□

□□74
36□□
□□□□
52□1
19
②□□< |①--②|
□□□□ |----|
□□□□ |--③-|
□□□□ |④-⑤-|

□⑤□□
□∧④□
□□∧□
□□>③

3□□□
□□5□
□□□1
□□□4
20
□□□□ |①-②-|
>②□∨ |③-④-|
□□□① |⑤-⑥-|
□□□□ |⑦-⑧-|

∨□⑤③
④□∧∧
□∨□□
□⑥□□

□□□□
□□□∨
□□□□
□□□⑧

□164
53□□
□□□2
□7□□
21
①∨□□ |--①-|
∧②□□ |②-③-|
□□□□ |④⑤⑥⑦|
□□□□ |---⑧|

□>□③
□□□□
□④⑤□
□⑦⑥□

□□□□
□□□□
□□□□
⑧□□<

2□□6
□3□□
□□□□
□□□1
22
③<□□ |----|
□□②□ |--①-|
□□∧□ |②-③-|
□□>① |④-⑤-|

□□□□
⑤<□□
□□∨□
□□④□

4□□□
□□3□
□□□□
1□52
23
□□□① |①-②-|
□∨□∧ |③--④|
□②□□ |----|
>□□④ |--⑤-|

□□□□
□□□□
∨□□□
⑤□□□

□□□2
1□□□
□3□□
□□□5
24
③□□② |①-②-|
∧①□∧ |③-④-|
□∧□□ |⑤-⑥-|
□□□□ |⑦---|

□□□□
□∨④<
□⑤∨□
□□⑥□

□□□□
⑦□□<
□□□□
□□□□

4□□3
□25□
□6□□
1□7□
25
□□□□ |--①-|
□②□□ |②-③-|
□∧□∨ |④-⑤-|
□□□① |⑥-⑦-|

□⑤⑥□
∨∧∧③
④□□∧
□□□□

□□□□
□□□∨
□□□⑦
□□□□

□67□
13□4
5□□□
□□□2
26
□□□□ |①--②|
□□②□ |--③-|
□□□□ |④--⑤|
①□<③ |--⑥-|

□>□④
⑤□□□
□④④□
□⑥□□

□□□6
□□□□
□□□1
3□□□
27
①□<□ |①--②|
□□□② |--③-|
□□□□ |④---|
□□③□ |⑤-⑥-|

□□④□
⑤□□□
□⑥∧④
⑤□□□

3□5□
□□□□
□□□□
□□□□
28
□③□□ |①--②|
□□□□ |--③-|
②□□□ |④---|
□>□① |--⑤-|

□□□□
⑤>□④
□□□□
□④④□

□□□□
□□□5
□□□□
□□□3
29
□③③□ |①---|
□②②□ |----|
□□□□ |②---|
①□□< |③---|

□□□□
□□□□
□□□□
3□□□
30
□□□□ |①--②|
□□□□ |--③-|
□□□□ |④--⑤|
□>□① |--⑥-|

④□<□
②□□⑤
□④④□
□③⑥□

6□□□
□□□□
□□□□
□□□3
31
□>□① |①--②|
②□□□ |--③-|
□□□□ |④---|
□③□□ |⑤-⑥-|

□④□□
□□□⑤
④∧⑥□
□□□⑤

□5□3
□□□□
□□□□
□□□□
32
□□②③ |①---|
□□□□ |②-③-|
□□□□ |④---|
①□<□ |--⑤-|

□□□□
④□<⑤
□□□□
□④④□

□□□□
5□□□
□□□□
3□□□
33
□④④□ |①---|
□③③□ |--②-|
②□□□ |③---|
>□□① |④---|

□□□□
□□□□
□□□□
□□□4
34
①□<□ |①--②|
□□□② |--③-|
□□□□ |④--⑤|
□□③□ |--⑥-|

□>□④
⑤□□□
□④④□
□⑥□□

3□□6
□□□□
□□□□
□□□□
35
□□□□ |①--②|
□①①□ |③④⑤⑥|
③④⑤⑥ |⑦⑧⑨⑩|
②□□□ |⑪⑫⑬⑭|

⑬□□⑭
⑦⑪⑫⑧
□□□□
□⑨⑩□
36
□①②□ |①--②|
□□□□ |③-④⑤|
□∧□□ |⑥--⑦|
□□□□ |-⑧⑨⑩|

□∨□□
□□□□
□⑥⑤④
□□□□

□□□□
⑧⑨⑩□
□□□□
□□∧□

□3□□
□□□□
□7□□
□□□□
37
④①□□ |---①|
□□□□ |--②-|
②⑤□□ |③--④|
□>□③ |--⑤-|

□□□□
□□1□
□□□□
□□□5
38
□□□① |①--②|
□②□□ |--③-|
□□□∧ |--④-|
□□③□ |⑤⑥⑦-|

□④④□
□□□□
□⑦⑥⑤
□□□□

□□□3
□□□□
□□□□
□□□□
39
⑨⑧⑦⑥ |①②③④|
①②③④ |⑤-⑥⑦|
⑤□□⑩ |⑧⑨⑩-|
⑪⑫⑬⑭ |⑪⑫⑬⑭|
40
□□⑥□ |①②③④|
①⑦□② |⑤⑥⑦⑧|
⑤③④⑧ |⑨⑩⑪⑫|
□□□□ |⑬⑭⑮⑯|

⑨□□□
⑮□⑩⑯
□□□□
⑬⑪⑫⑭
41
□①□② |①--②|
□□□□ |--③-|
□∧③□ |--④-|
□□□□ |⑤-⑥-|

□□□□
④□⑥□
□⑤□□
□□□□

□3□□
□□□□
□□□□
□□□□
42
>□□② |①--②|
□□□④ |--③-|
①□□① |④-⑤-|
□③□□ |⑥-⑦-|

□□⑦□
>⑥∧□
∨□□□
⑤□□□

□□□5
□7□□
□□□□
6□□□
43
□□□□ |①-②-|
□□②□ |③-④-|
①<∧① |---⑤|
□□□□ |--⑥-|

④□□④
□∨□□
□③□⑥
>□□⑤

□□1□
□□3□
24□□
□□□□
44
□①□④ |①-②-|
③<□∧ |③-④-|
□∨□□ |⑤-⑥-|
□②□□ |⑦-⑧-|

□□⑦□
□⑥∧□
∨∧⑤□
⑤□□□

□□□□
□□□∨
⑧□□⑧
□□□□

□□85
47□□
□□□□
63□2
45
②□□< |①--②|
□□□④ |--③-|
□③□□ |④-⑤-|
□①□□ |⑥-⑦-|

□⑦□□
□∧⑥□
□□∧□
□□>⑤

5□□□
□□7□
□□□1
□□□6
46
□□□□ |①-②-|
>②□∨ |③-④-|
①□□① |⑤-⑥-|
□□□□ |⑦-⑧-|

∨□⑤③
④□∧∧
□∨④□
□⑥□□

□□□□
□□□∨
□□□□
⑧□□⑧

□164
53□□
□□□2
□7□□
47
②∨□□ |①-②-|
∧③①□ |③-④-|
□□□□ |⑤⑥⑦⑧|
□□□□ |---⑨|

□>□④
□□□□
□⑤⑥□
□⑧⑦□

□□□□
□□□□
□□□□
⑨□□<

3□□7
□4□□
□□□□
□□□2
48
⑤<②□ |--①-|
□□④□ |②-③-|
①□∧□ |④-⑤-|
□□>③ |⑥-⑦-|

□□□□
⑦<□□
□□∨□
□⑥⑥□

6□□□
□□5□
□□□□
3□74
49
□□□① |①-②-|
□∨□∧ |③--④|
□②②□ |--⑤-|
>□□④ |⑥-⑦-|

□⑤□□
□□□⑥
∨□□□
⑦□□□

□□□2
1□□□
□3□□
□□□7
50
③□□② |①-②-|
∧①□∧ |③-④-|
③∧□□ |⑤-⑥-|
□□□□ |⑦---|

□□□□
□∨④<
□⑤∨□
□⑥⑥□

□□□□
⑦□□<
□□□□
□□□□

4□□3
□25□
□6□□
1□7□
51
□□□□ |--①-|
□②□□ |②-③-|
□∧②∨ |④-⑤-|
①□□① |⑥-⑦-|

□⑤⑥□
∨∧∧③
④□□∧
□⑥□□

⑦□□□
□□□∨
□□□⑦
□□□□

□67□
13□4
5□□□
□□□2
52
□□□□ |①---|
①□□< |--②-|
□□□□ |③---|
□□□□ |----|

□□□③
□□①③
□□□□
□□②□

□□□□
□□□□
□□□1
□□□□
53
□□□□ |①---|
□②②□ |②---|
□①①④ |--③-|
□□③④ |④---|
54
>□□① |①-②-|
□□□□ |--③-|
□□□□ |④---|
□②□□ |--⑤-|

∨③□□
□□□□
□□□⑤
④□④□

□□□□
1□□□
□□□□
□□□□
55
□□①□ |①---|
□□④□ |----|
□③□□ |②---|
□②□□ |③--④|
56
□□②□ |--①-|
□□□□ |②---|
①∨□□ |③---|
□③□□ |④---|

□□□□
□□□□
□>④□
□□□□

□□□2
□□□□
□□□□
24□□
57
□□□□ |①---|
①□□< |--②-|
□□□□ |③---|
□□□□ |④---|

□□③□
□□□③
□>□④
□□②□

□□□□
4□□□
□□1□
□□□□
58
□②④□ |①---|
□□□□ |②---|
③∧②□ |--③-|
①□□□ |④---|

□□□□
□□□□
□□□2
□□□□
59
>□□① |①-②-|
□□③□ |--③-|
□②□□ |④---|
④□□< |--⑤-|

□□□□
□□□□
□□□□
□⑤□□

□1□□
□□□□
□□□□
□□□□
60
□□①□ |①---|
□②③□ |----|
□②③□ |②---|
□□□□ |③---|
61
□②□□ |--①-|
□□□□ |②---|
□□□□ |----|
□□①□ |③---|

□□□3
□□□□
□□□□
3□□□
最終更新:2024年09月14日 15:00