アットウィキロゴ
24/7 Popperz
Power Of Nature

BASIC

Level: 5
BPM: 202
Notes: 406

1
口口口口 |----|
口口口口 |----|
口口口口 |----|
口口口口 |----|
2
口口口口 |----|
口口口口 |----|
口口口口 |----|
口口口口 |----|
3
口口口口 |①---|
①口口① |----|
口口口口 |--②-|
口②口口 |----|
4
口口口口 |①---|
①口口① |----|
口口口口 |--②-|
口口②口 |----|
5
口口口口 |①---|
①口口① |----|
口口口口 |--②-|
口口口② |----|
6
口口口口 |①---|
①口口① |----|
口口口口 |----|
口口口口 |----|
7
口口口口 |①---|
①口口① |----|
口口口口 |--②-|
口口②口 |----|
8
口口口口 |①---|
①口口① |----|
口口口口 |--②-|
口②口口 |----|
9
口口②口 |①---|
①口口① |----|
口口口口 |--②-|
口口口口 |----|
10
口口口④ |①---|
口口③口 |②---|
口②口口 |③---|
①口口口 |④---|
11
口口口口 |①---|
口②③口 |②---|
①口口④ |③---|
口口口口 |④---|
12
①口口② |①---|
口口口口 |②---|
口③口口 |----|
口口口口 |③---|
13
口③②口 |①---|
口口口口 |②---|
④口口① |③---|
口口口口 |④---|
14
口口③口 |①---|
口口①口 |②---|
口②口口 |----|
口口口口 |③---|
15
口口口口 |①---|
口②口④ |②---|
①口③口 |③---|
口口口口 |④---|
16
③①口口 |①---|
口口口口 |②---|
口口口口 |----|
口口②口 |③---|
17
口口口口 |①---|
④口②口 |②---|
口③口① |③---|
口口口口 |④---|
18
口口①口 |①---|
口口口口 |②---|
口口口口 |----|
口②口口 |----|
19
口口口口 |①---|
⑤④③② |----|
口①①口 |②-③-|
口口口口 |④-⑤-|
20
口口口口 |①---|
口口口口 |----|
口口口口 |----|
口口①口 |----|
21
口①①口 |①---|
口口口口 |----|
②③④⑤ |②-③-|
口口口口 |④-⑤-|
22
口①口口 |①---|
口口口口 |----|
口口口口 |----|
口口口口 |----|
23
①口口① |①---|
⑤④③② |----|
口口口口 |②-③-|
口口口口 |④-⑤-|
24
口口口口 |①---|
口口口口 |----|
口口口口 |----|
口口①口 |----|
25
口口口口 |①---|
口口口口 |----|
②③④⑤ |②-③-|
①口口① |④-⑤-|
26
口①口口 |①---|
口口口口 |----|
口口口口 |----|
口口口口 |----|
27
口口口口 |①---|
⑤④③② |----|
口①①口 |②-③-|
口口口口 |④-⑤-|
28
口口口口 |①---|
④口口③ |②---|
口口口口 |③---|
口②①口 |④---|
29
口①①口 |①---|
口口口口 |----|
②③④⑤ |②-③-|
口口口口 |④-⑤-|
30
口①②口 |①---|
口口口口 |②---|
③口口④ |③---|
口口口口 |④---|
31
①口口① |①---|
⑤④③② |----|
口口口口 |②-③-|
口口口口 |④-⑤-|
32
口口口口 |①---|
④口口③ |②---|
口口口口 |③---|
口②①口 |④---|
33
口口口口 |①---|
口口口口 |----|
②③④⑤ |②-③-|
①口口① |④-⑤-|
34
口①口口 |①---|
口口②口 |②---|
口③口口 |③---|
口口口口 |----|
35
口口口口 |①---|
①②③④ |②---|
口口口口 |③---|
口口口口 |④---|
36
口口口口 |①---|
口口口口 |②---|
④③②① |③---|
口口口口 |④---|
37
口口④口 |①---|
口口③口 |②---|
口口②口 |③---|
口口①口 |④---|
38
口④口口 |①---|
口③口口 |②---|
口②口口 |③---|
口①口口 |④---|
39
口口口口 |①---|
口口口口 |②---|
④③②① |③---|
口口口口 |④---|
40
口口口口 |①---|
①②③④ |②---|
口口口口 |③---|
口口口口 |④---|
41
口①②口 |①---|
口口口口 |②---|
口口口口 |③---|
口③④口 |④---|
42
口口口口 |①---|
口口口口 |②---|
①②③④ |③---|
口口口口 |④---|
43
口口口口 |①---|
③口口口 |②---|
②口口口 |③---|
①口口④ |④---|
44
口口口口 |①---|
口口口② |②---|
口④口① |③---|
口③口口 |④---|
45
③④口口 |①---|
口①口口 |②---|
口口口口 |③---|
口口②口 |④---|
46
口口①② |①---|
口口口口 |②---|
口③③口 |③---|
口口口口 |----|
47
口口口口 |①---|
口口口③ |②---|
口口口② |③---|
④口口① |④---|
48
口口口口 |①---|
②口口口 |②---|
①口④口 |③---|
口口③口 |④---|
49
口口口口 |①---|
④口①③ |②---|
口口口口 |③---|
口②口口 |④---|
50
口口口口 |①---|
口口口口 |②---|
④③②① |③---|
口口口口 |④---|
51
口①①口 |①---|
口口口口 |----|
口口口口 |----|
口口口口 |----|
52
口口口口 |----|
口口口口 |----|
口口口口 |----|
口口口口 |----|
53
口口口口 |①---|
口口①口 |--②-|
③口口口 |----|
口②口口 |③---|
54
口口口口 |----|
口口口口 |----|
口口口口 |----|
口口口口 |----|
55
口①口口 |①---|
口口口③ |--②-|
口口②口 |----|
口口口口 |③---|
56
口口口口 |----|
口口口口 |----|
口口口口 |----|
口口口口 |----|
57
口口①口 |①---|
③口口口 |--②-|
口②口口 |----|
口口口口 |③---|
58
口口口口 |--①-|
口口③② |----|
口口口口 |②---|
口口①口 |③---|
59
口口口口 |①---|
口①口③ |②---|
口口②口 |③---|
口口口口 |----|
60
口①①口 |①---|
口②②口 |②---|
口③③口 |③---|
口④④口 |④---|
61
口③③口 |①---|
①口口② |--②-|
①口口② |----|
口口口口 |③---|
62
口口口口 |①---|
口口口口 |②---|
口口口口 |③---|
④③②① |④---|
63
口③③口 |①---|
②口口① |--②-|
②口口① |----|
口口口口 |③---|
64
口口口口 |①---|
口口口口 |②---|
口口口口 |③---|
①②③④ |④---|
65
口口口口 |①---|
①口口② |--②-|
①口口② |----|
口③③口 |③---|
66
口口口口 |①---|
口②口④ |②---|
①口③口 |③---|
口口口口 |④---|
67
①口口① |①---|
口口口口 |----|
口口口口 |--②-|
②③④口 |③-④-|
68
口口口口 |①---|
口口口口 |----|
②③④口 |--②-|
口口口① |③-④-|
69
口口口口 |①---|
②③④口 |----|
口口口① |--②-|
口口口口 |③-④-|
70
②③④口 |①---|
口口口① |----|
口口口口 |--②-|
口口口口 |③-④-|
71
口口口① |①---|
口口④口 |②---|
口口口口 |③---|
②③口口 |④---|
72
口口口口 |①---|
③口口① |②---|
口②口口 |③---|
口口④口 |④---|
73
口口口口 |①---|
口③口口 |②---|
④口②① |③---|
口口口口 |④---|
74
口口口口 |①---|
口口③口 |②---|
口口②口 |③---|
口①口口 |----|
75
①口口口 |①---|
口口口② |②---|
口口④口 |③---|
口③口口 |④---|
76
④⑤口口 |①---|
口③③口 |②---|
①口口② |③---|
口口口口 |④-⑤-|
77
口口①口 |①---|
口④口口 |②---|
口口口② |③---|
口口③口 |④---|
78
①口口① |①---|
②口口② |②---|
③口口③ |③---|
④口口④ |④---|
79
口口口口 |①---|
③口①口 |②---|
口口口口 |③---|
口②④口 |④---|
80
口③③口 |①---|
口口⑤④ |②---|
②口口① |③---|
口口口口 |④-⑤-|
81
口口口口 |①---|
③①口④ |②---|
口口口口 |③---|
口口②口 |④---|
82
口⑤口口 |①-②-|
口③④口 |③-④-|
口①②口 |⑤---|
口口口口 |----|
83
①口口① |①---|
口口口口 |----|
口口口口 |②---|
口②②口 |----|
84
③④口口 |①---|
①口口① |----|
口②②口 |②---|
口口口口 |③-④-|
85
口口①口 |①---|
口④口口 |②---|
口口口② |③---|
口口③口 |④---|
86
①口口① |①---|
②口口② |②---|
③口口③ |③---|
④口口④ |④---|
87
口口口口 |①---|
③口①口 |②---|
口口口口 |③---|
口②④口 |④---|
88
口④③口 |①---|
口口口口 |②---|
②口口① |③---|
口口口口 |④---|
89
口口口口 |①---|
③①口④ |②---|
口口口口 |③---|
口口②口 |④---|
90
口⑤口口 |①-②-|
口③④口 |③-④-|
口①②口 |⑤---|
口⑦⑥口 |⑥-⑦-|
91
口口口口 |①-②-|
口口③口 |③---|
口②①口 |----|
口口口口 |----|
92
⑤口口口 |①-②-|
③口口④ |③-④-|
①口口② |⑤---|
⑦口口⑥ |⑥-⑦-|
93
口口口口 |①-②-|
口口口③ |③---|
②口口① |----|
口口口口 |----|
94
口口口口 |①---|
口口口口 |----|
口口口口 |②---|
口口②① |----|
95
口口口口 |①---|
口口口口 |----|
口口口口 |②---|
②①口口 |----|
96
口口④④ |①---|
口口③③ |②---|
口口②② |③---|
口口①① |④---|
97
④④口口 |①---|
③③口口 |②---|
②②口口 |③---|
①①口口 |④---|
98
口口口口 |①---|
口口①口 |----|
口口口口 |②---|
口口②口 |----|
99
口口口口 |①---|
口①口口 |----|
口口口口 |②---|
口②口口 |----|
100
口①①口 |①---|
口②②口 |②---|
口③③口 |③---|
口④④口 |④---|
101
④口口④ |①---|
③口口③ |②---|
②口口② |③---|
①口口① |④---|
102
口①①口 |①---|
口口口口 |----|
口口口口 |----|
口口口口 |----|

accuracy: 100%
最終更新:2024年07月20日 01:42