アットウィキロゴ
24/7 Popperz
Power Of Nature

ADVANCED

Level: 9.2
BPM: 202
Notes: 742

1
口口口口 |----|
口口口口 |----|
口口口口 |----|
口口口口 |----|
2
口口口口 |----|
口口口口 |----|
口口口口 |----|
口口口口 |----|
3
口①①口 |①---|
口口口口 |----|
①口口① |--②-|
②口②口 |----|
4
①口①口 |①---|
口口口口 |----|
口①口① |--②-|
口②口② |----|
5
口①口① |①---|
口口口口 |----|
①口①口 |--②-|
②口口② |----|
6
①口口① |①---|
口口口口 |----|
口①①口 |----|
口口口口 |----|
7
①口口① |①---|
口口口口 |----|
口①①口 |--②-|
②口②口 |----|
8
①口①口 |①---|
口口口口 |----|
口①口① |--②-|
口②口② |----|
9
②①②① |①---|
口口口口 |----|
①口①口 |--②-|
口口口口 |----|
10
口②口④ |①---|
①口③口 |②---|
口②口④ |③---|
①口③口 |④---|
11
口⑤⑥口 |①-②-|
③口口④ |③-④-|
口口口口 |⑤-⑥-|
①⑦⑧② |⑦-⑧-|
12
口口口口 |①-②-|
口②③⑦ |③-④-|
①⑥口④ |--⑤-|
口口口⑤ |⑥-⑦-|
13
⑤③④⑥ |①-②-|
口口口口 |③-④-|
⑦口口⑧ |⑤-⑥-|
口①②口 |⑦-⑧-|
14
口⑦⑥⑤ |①-②-|
①口口口 |③-④-|
口②③口 |--⑤-|
口口口④ |⑥-⑦-|
15
口⑧⑦口 |①-②-|
④口口③ |③-④-|
⑥口口⑤ |⑤-⑥-|
口②①口 |⑦-⑧-|
16
口⑦⑥⑤ |①-②-|
④口口口 |③-④-|
口③②口 |--⑤-|
口口口① |⑥-⑦-|
17
⑧口口⑦ |①-②-|
口④③口 |③-④-|
口⑥⑤口 |⑤-⑥-|
②口口① |⑦-⑧-|
18
口口口口 |①-②-|
④③②① |③-④-|
口口口口 |----|
口口口口 |----|
19
口⑨口⑧ |①-②③|
⑤⑥⑦口 |④-⑤⑥|
②③④口 |⑦-⑧-|
口口⑩① |⑨-⑩-|
20
口口口口 |①---|
口口口口 |----|
口口口口 |----|
①口口口 |----|
21
口口⑩口 |①-②③|
口⑦⑥⑤ |④-⑤⑥|
口④③② |⑦-⑧-|
①⑨口⑧ |⑨-⑩-|
22
①口口口 |①---|
口口口口 |----|
口口口口 |----|
口口口口 |----|
23
①⑦⑥⑤ |①-②③|
⑧口⑨口 |④-⑤⑥|
口④③② |⑦-⑧-|
口⑩口口 |⑨-⑩-|
24
口口口口 |①---|
口口口口 |----|
口口口口 |----|
口口口① |----|
25
口⑨口⑧ |①-②③|
⑤⑥⑦口 |④-⑤⑥|
②③④口 |⑦-⑧-|
口口⑩① |⑨-⑩-|
26
④口口口 |①---|
③口口口 |②---|
②口口口 |③---|
①口口口 |④---|
27
口⑨口⑧ |①-②③|
⑤⑥⑦口 |④-⑤⑥|
②③④口 |⑦-⑧-|
口口⑩① |⑨-⑩-|
28
④口口口 |①---|
③口口口 |②---|
②口口口 |③---|
①口口口 |④---|
29
口口⑩口 |①-②③|
口⑦⑥⑤ |④-⑤⑥|
口④③② |⑦-⑧-|
①⑨口⑧ |⑨-⑩-|
30
①口口口 |①---|
②口口口 |②---|
③口口口 |③---|
④口口口 |④---|
31
①⑦⑥⑤ |①-②③|
⑧口⑨口 |④-⑤⑥|
口④③② |⑦-⑧-|
口⑩口口 |⑨-⑩-|
32
口口口④ |①---|
口口口③ |②---|
口口口② |③---|
口口口① |④---|
33
口⑨口⑧ |①-②③|
⑤⑥⑦口 |④-⑤⑥|
②③④口 |⑦-⑧-|
口口⑩① |⑨-⑩-|
34
⑤口口口 |①-②-|
口⑥④口 |③-④-|
③口⑦口 |⑤-⑥-|
①口口② |⑦---|
35
④③②① |①-②-|
口口口口 |③-④-|
口⑧⑦口 |⑤-⑥-|
⑥口口⑤ |⑦-⑧-|
36
口⑦⑥口 |①-②-|
①②③④ |③-④-|
⑤口口⑧ |⑤-⑥-|
口口口口 |⑦-⑧-|
37
口⑦口⑧ |①-②-|
⑤口⑥口 |③-④-|
口口口口 |⑤-⑥-|
①②③④ |⑦-⑧-|
38
口口口口 |①-②-|
⑥口口⑦ |③-④-|
④③②① |⑤-⑥-|
口⑧⑤口 |⑦-⑧-|
39
口⑧⑦口 |①-②-|
口口口口 |③-④-|
④③②① |⑤-⑥-|
⑥口口⑤ |⑦-⑧-|
40
⑦口口⑥ |①-②-|
①②③④ |③-④-|
口口口口 |⑤-⑥-|
口⑤⑧口 |⑦-⑧-|
41
口口口口 |①-②-|
⑧⑦⑥⑤ |③-④-|
①②③④ |⑤-⑥-|
口口口口 |⑦-⑧-|
42
口⑧⑦口 |①-②-|
口⑥⑤口 |③-④-|
口④③口 |⑤-⑥-|
口②①口 |⑦-⑧-|
43
口口口口 |①---|
②口③③ |②---|
④④口口 |③---|
口②①① |④---|
44
②口②① |①---|
④口口口 |②---|
④口①口 |③---|
口③口③ |④---|
45
口口③① |①---|
口③①口 |②---|
口口口④ |③---|
②④②口 |④---|
46
口③③② |①---|
①③③② |②---|
口①口口 |③---|
口口口口 |----|
47
口③口口 |①---|
②口口口 |②---|
①口③④ |③---|
①②口④ |④---|
48
口口②口 |①---|
口口口① |②---|
④②④口 |③---|
③③①口 |④---|
49
口口口口 |①---|
③①③① |②---|
口④口④ |③---|
口口②② |④---|
50
④②②③ |①---|
⑥口口⑤ |②---|
⑧口口⑦ |③-④-⑤-|
①①口口 |⑥-⑦-⑧-|
51
口口口口 |①---|
口①①口 |----|
口口口口 |②---|
口口②口 |----|
52
口口口口 |①---|
口口口口 |----|
口口口口 |②---|
②①口口 |----|
53
口①①口 |①---|
③口口口 |--②-|
口口口口 |----|
口②口口 |③---|
54
④口口口 |--①-|
口口③⑤ |②-③-|
⑥②口口 |④-⑤-|
口口①⑦ |⑥-⑦-|
55
口①①口 |①---|
口口口③ |--②-|
口口口口 |----|
口口②口 |③---|
56
口口口④ |--①-|
⑤③口口 |②-③-|
口口②⑥ |④-⑤-|
⑦①口口 |⑥-⑦-|
57
口①①口 |①---|
③口口口 |--②-|
口口口口 |----|
口②口口 |③---|
58
口口口口 |--①-|
口口口② |----|
口口口口 |②---|
口③①口 |③---|
59
口口口③ |①---|
①口②口 |②---|
口②口③ |③---|
①口口口 |----|
60
①口①口 |①---|
口②口② |②---|
③口③口 |③---|
口④口④ |④---|
61
⑤②口③ |①---|
①口口口 |②-③-|
⑤口口③ |--④-|
①口④口 |⑤---|
62
口⑥口⑨ |①-②③|
口④③② |④-⑤-|
⑧口⑦口 |⑥-⑦-|
口①口⑤ |⑧-⑨-|
63
⑤口口口 |①---|
①口口③ |②-③-|
⑤②④口 |--④-|
①口口③ |⑤---|
64
⑨口⑥① |①-②③|
②③④口 |④-⑤-|
口⑦口⑧ |⑥-⑦-|
口⑤口口 |⑧-⑨-|
65
口③⑤口 |①---|
口④口① |②-③-|
③口②⑤ |--④-|
口口①口 |⑤---|
66
口口口口 |①-②③|
⑤⑨①⑥ |④-⑤-|
⑦口⑧口 |⑥-⑦-|
②③④口 |⑧-⑨-|
67
口口①① |①---|
口⑥⑦口 |----|
口④⑤口 |--②③|
口②③口 |④⑤⑥⑦|
68
口①口口 |①---|
⑦口口⑥ |----|
⑤口口④ |--②③|
③口口② |④⑤⑥⑦|
69
口②③① |①---|
口④⑤口 |----|
口⑥⑦口 |--②③|
口口口口 |④⑤⑥⑦|
70
③口口② |①---|
⑤口口④ |----|
⑦口口⑥ |--②③|
口①口口 |④⑤⑥⑦|
71
口⑥⑧口 |①-②-|
⑦口口口 |③-④-|
口③⑤口 |⑤-⑥-|
口②④① |⑦-⑧-|
72
口口口口 |①-②-|
口⑦⑤① |③-④-|
⑥③⑧④ |⑤-⑥-|
②口口口 |⑦-⑧-|
73
⑦口口口 |①-②-|
⑥口⑤① |③-④-|
口③⑧④ |⑤-⑥-|
口②口口 |⑦-⑧-|
74
⑥⑥⑦⑦ |①-②-|
口②口① |③-④-|
③口口④ |⑤-⑥-|
口口⑤口 |⑦---|
75
口口口⑧ |①-②-|
①⑦口② |③-④-|
口口⑥口 |⑤-⑥-|
⑤③④口 |⑦-⑧-|
76
①③口口 |①-②-|
口⑦口④ |③-④-|
口口口口 |⑤---|
⑤⑤⑥② |⑥-⑦-|
77
口口①口 |①-②-|
④口口③ |③-④-|
⑥②口⑤ |⑤-⑥-|
口⑧⑦口 |⑦-⑧-|
78
④③②① |①②③④|
⑧⑦⑥⑤ |⑤⑥⑦⑧|
⑫⑪⑩⑨ |⑨⑩⑪⑫|
⑯⑮⑭⑬ |⑬⑭⑮⑯|
79
②④⑤① |①-②-|
口⑧③口 |③-④-|
⑥口口⑦ |⑤-⑥-|
口口口口 |⑦-⑧-|
80
口口口⑤ |①-②-|
②口⑥③ |③-④-|
口⑦①口 |⑤-⑥-|
⑧④口口 |⑦-⑧-|
81
口⑤⑤口 |①-②-|
口④口口 |③-④-|
②口③口 |⑤---|
口⑥⑥① |⑥---|
82
②口口① |①②③④|
④⑨⑨③ |⑤⑥⑦⑧|
⑥口口⑤ |⑨---|
⑧口口⑦ |----|
83
①①①① |①---|
口口口口 |----|
②②②② |②---|
口口口口 |----|
84
口④口口 |①---|
①①①① |----|
口口③口 |②---|
②②②② |③-④-|
85
口口口① |①-②-|
口④③口 |③-④-|
②⑥口⑤ |⑤-⑥-|
⑧口⑦口 |⑦-⑧-|
86
④③②① |①②③④|
⑧⑦⑥⑤ |⑤⑥⑦⑧|
⑫⑪⑩⑨ |⑨⑩⑪⑫|
⑯⑮⑭⑬ |⑬⑭⑮⑯|
87
口②①⑦ |①-②-|
④⑥口③ |③-④-|
口口⑤口 |⑤-⑥-|
⑧口口口 |⑦-⑧-|
88
②口①口 |①-②-|
④口③口 |③-④-|
口⑥口⑤ |⑤-⑥-|
口⑧口⑦ |⑦-⑧-|
89
口④⑤① |①-②-|
口⑥口口 |③-④-|
口口⑦口 |⑤-⑥-|
②⑧③口 |⑦-⑧-|
90
②⑩⑨① |①②③④|
④⑫⑪③ |⑤⑥⑦⑧|
⑥口口⑤ |----|
⑧口口⑦ |⑨⑩⑪⑫|
91
口⑥⑥口 |①②③④|
口口口口 |----|
口②①口 |⑤---|
⑤④③⑤ |⑥---|
92
②⑩⑨① |①②③④|
④⑫⑪③ |⑤⑥⑦⑧|
⑥口口⑤ |----|
⑧口口⑦ |⑨⑩⑪⑫|
93
口⑥⑥口 |①②③④|
口口口口 |----|
口②①口 |⑤---|
⑤④③⑤ |⑥---|
94
口口口② |①---|
口口口口 |----|
口口口口 |②---|
口口①口 |----|
95
②口口口 |①---|
口口口口 |----|
口口口口 |②---|
口①口口 |----|
96
口③②① |①-②-③-|
口⑥⑤④ |④-⑤-⑥-|
口⑨⑧⑦ |⑦-⑧-⑨-|
口⑫⑪⑩ |⑩-⑪-⑫-|
97
①②③口 |①-②-③-|
④⑤⑥口 |④-⑤-⑥-|
⑦⑧⑨口 |⑦-⑧-⑨-|
⑩⑪⑫口 |⑩-⑪-⑫-|
98
①①口口 |①---|
口口口口 |----|
口口口② |②---|
口口口② |----|
99
口口①① |①---|
口口口口 |----|
②口口口 |②---|
②口口口 |----|
100
①①口口 |①---|
②口②口 |②---|
口③口③ |③---|
口口④④ |④---|
101
②②①① |①---|
②口口① |②---|
③口口④ |③---|
③③④④ |④---|
102
口口口口 |①---|
口①①口 |----|
口①①口 |----|
口口口口 |----|

accuracy: 100%
最終更新:2024年07月20日 01:43