アットウィキロゴ
24/7 Popperz
Power Of Nature

EXTREME

Level: 10.6
BPM: 202
Notes: 1000

1
口口口口 |----|
口口口口 |----|
口口口口 |----|
口口口口 |----|
2
口口口口 |----|
口口口口 |----|
口口口口 |----|
口口口口 |----|
3
口口口① |①---|
口口③口 |----|
口口口口 |②-③-|
口②口口 |----|
4
①口口口 |①---|
口③口口 |----|
口口口口 |②-③-|
口口②口 |----|
5
口口①口 |①---|
口口口③ |----|
口口口口 |②-③-|
口②口口 |----|
6
②口口口 |①---|
⑧④③口 |②-③④|
口⑥⑤口 |⑤⑥⑦-|
①口⑦口 |⑧---|
7
口口口① |①---|
口口③口 |----|
口口口口 |②-③-|
口②口口 |----|
8
①口口口 |①---|
口③口口 |----|
口口口口 |②-③-|
口口②口 |----|
9
口口①③ |①---|
口口口口 |----|
口口口口 |②-③-|
口②口口 |----|
10
口口口④ |①---|
口口③口 |②---|
口②口口 |③---|
①口口口 |④---|
11
口⑤⑥口 |①-②-|
③口口④ |③-④-|
⑦口口⑧ |⑤-⑥-|
口①②口 |⑦-⑧-|
12
口口口口 |①-②-|
⑦口口⑥ |③-④-|
⑤②③口 |--⑤-|
①口口④ |⑥-⑦-|
13
④⑥⑤③ |①-②-|
口口口口 |③-④-|
口口口口 |⑤-⑥-|
⑧②①⑦ |⑦-⑧-|
14
口口⑤口 |①-②-|
④⑥口① |③-④-|
口③②口 |--⑤-|
口口⑦口 |⑥-⑦-|
15
②⑥⑧④ |①-②-|
口口口口 |③-④-|
口口口口 |⑤-⑥-|
①⑤⑦③ |⑦-⑧-|
16
口⑤口口 |①-②-|
口③②⑥ |③-④-|
④口口① |--⑤-|
⑦口口口 |⑥-⑦-|
17
④⑧⑥② |①-②-|
口口口口 |③-④-|
口口口口 |⑤-⑥-|
⑦③①⑤ |⑦-⑧-|
18
口口口口 |①-②-|
①口口④ |③-④-|
口②③口 |----|
口口口口 |----|
19
口口口口 |①-②③|
⑦①口⑥ |④⑤⑥⑦|
口⑤④口
③口口②

口口⑧口
口⑪⑩口
口口口口 |⑧-⑨-|
口⑨口口 |⑩-⑪-|
20
口口口① |①---|
口口口口 |----|
口口口口 |----|
口口口口 |----|
21
口口口① |①-②③|
④口口⑤ |④⑤⑥⑦|
②口口③
⑥口口⑦

⑩口口⑪
口口口口
口口⑨口 |⑧-⑨-|
口⑧口口 |⑩-⑪-|
22
口①口口 |①---|
口口口口 |----|
口口口口 |----|
口口口口 |----|
23
口①④口 |①-②③|
口⑤⑩口 |④⑤⑥⑦|
③⑨口② |⑧-⑨-|
⑪⑦⑧⑥ |⑩-⑪-|
24
口口口口 |①---|
口口口① |----|
口口口口 |----|
口口口口 |----|
25
口⑥③⑨ |①-②③|
④口口① |④⑤⑥⑦|
②⑩⑪⑦ |⑧-⑨-|
口⑧⑤口 |⑩-⑪-|
26
⑪⑤⑥⑫ |①-②-|
口①口④ |③-④-|
⑨口口⑩ |⑤⑥⑦⑧|
③⑦⑧② |⑨⑩⑪⑫|
27
口口口口 |①-②③|
⑦①口⑥ |④⑤⑥⑦|
口⑤④口
③口口②

口口⑧口
口⑪⑩口
口口口口 |⑧-⑨-|
口⑨口口 |⑩-⑪-|
28
②⑯⑮① |①②③④|
⑥⑭⑬⑤ |⑤⑥⑦⑧|
④⑫⑪③ |⑨⑩⑪⑫|
⑧⑩⑨⑦ |⑬⑭⑮⑯|
29
口口口① |①-②③|
④口口⑤ |④⑤⑥⑦|
②口口③
⑥口口⑦

⑩口口⑪
口口口口
口口⑨口 |⑧-⑨-|
口⑧口口 |⑩-⑪-|
30
⑮①②⑯ |①②③④|
⑬⑤⑥⑭ |⑤⑥⑦⑧|
③⑪⑫④ |⑨⑩⑪⑫|
⑦⑨⑩⑧ |⑬⑭⑮⑯|
31
口①④口 |①-②③|
口⑤⑩口 |④⑤⑥⑦|
③⑨口② |⑧-⑨-|
⑪⑦⑧⑥ |⑩-⑪-|
32
⑫⑥⑤⑬ |①②③④|
②⑪⑭① |⑤⑥⑦⑧|
④⑮⑩③ |⑨⑩⑪⑫|
⑯⑧⑦⑨ |⑬⑭⑮⑯|
33
口⑥③⑨ |①-②③|
④口口① |④⑤⑥⑦|
②⑩⑪⑦ |⑧-⑨-|
口⑧⑤口 |⑩-⑪-|
34
⑨⑦⑧口 |①②③④|
⑤①⑩② |⑤⑥⑦⑧|
⑬⑪口⑥ |⑨⑩⑪⑫|
③口④⑫ |⑬---|
35
口口⑫口 |①②③④|
⑤⑥口④ |⑤⑥⑦⑧|
⑪⑨③⑧ |⑨-⑩-|
①②⑦⑩ |⑪-⑫-|
36
①②口④ |①②③④|
⑤⑥③口 |⑤⑥⑦⑧|
口口口⑧
口口⑦口

⑫口⑪口
口口口口
口口⑩口 |⑨-⑩-|
⑨口口口 |⑪-⑫-|
37
⑫口⑪⑨ |①②③④|
④⑩②① |⑤⑥⑦⑧|
⑧③口口 |⑨-⑩-|
口⑦⑥⑤ |⑪-⑫-|
38
⑪⑦口⑫ |①②③④|
⑧⑩⑥⑤ |⑤⑥⑦⑧|
口③②① |⑨-⑩-|
④口口⑨ |⑪-⑫-|
39
口口⑫口 |①②③④|
⑪⑨口⑧ |⑤⑥⑦⑧|
①②⑦④ |⑨-⑩-|
⑤⑥③⑩ |⑪-⑫-|
40
①②口⑪ |①②③④|
口⑫③⑧ |⑤⑥⑦⑧|
⑤⑥⑦④ |⑨-⑩-|
⑨口口⑩ |⑪-⑫-|
41
②口①口 |①②③④|
④口③口 |⑤-⑥⑦|
口口⑤口
⑥⑦口口

口口⑭⑬
口⑫口口
口⑩口⑪ |⑧⑨⑩⑪|
口口⑧⑨ |⑫-⑬⑭|
42
②①口⑬ |①②③-|
⑫口⑤③ |④-⑤-|
④⑧⑨⑪ |⑥⑦⑧⑨|
⑩⑥⑦口 |⑩⑪⑫⑬|
43
①②③口 |①-②-③-|
⑫⑥⑤④ |④-⑤-⑥-|
⑪口口口 |⑦-⑧-⑨-|
⑩⑦⑧⑨ |⑩-⑪-⑫-|
44
口③②① |①-②-③-|
口⑩⑪⑫ |④-⑤-⑥-|
口④⑤⑥ |⑦-⑧-⑨-|
⑨⑧⑦口 |⑩-⑪-⑫-|
45
①⑥⑤④ |①-②-③-|
②口口⑫ |④-⑤-⑥-|
③口口⑪ |⑦-⑧-⑨-|
⑨⑧⑦⑩ |⑩-⑪-⑫-|
46
⑥⑤④口 |①-②-③-|
①②③口 |④-⑤-⑥-|
口口口口
口口口口

口口口⑨
⑫口口口
口⑧⑪口 |⑦-⑧-⑨-|
口⑩⑦口 |⑩-⑪-⑫-|
47
⑩⑥③口 |①-②-③-|
口⑫⑦① |④-⑤-⑥-|
④⑧口⑨ |⑦-⑧-⑨-|
②口⑪⑤ |⑩-⑪-⑫-|
48
⑩⑥⑤③ |①-②-③-|
②口⑪⑨ |④-⑤-⑥-|
⑧口①口 |⑦-⑧-⑨-|
④⑫口⑦ |⑩-⑪-⑫-|
49
口口⑦③ |①-②-③-|
④②⑪⑨ |④-⑤-⑥-|
⑩⑧⑤口 |⑦-⑧-⑨-|
⑥⑫①口 |⑩-⑪-⑫-|
50
⑩④口口 |①-②-③-|
⑥②⑪⑨ |④-⑤-⑥-|
⑫⑧⑤③ |⑦-⑧-⑨-|
口口①⑦ |⑩-⑪-⑫-|
51
④③②① |①---|
口口口口 |②---|
口口口口 |③---|
口口口口 |④---|
52
口口口口 |①---|
口口口口 |②---|
口口口口 |③---|
④③②① |④---|
53
③口口① |①---|
口口口口 |--②-|
口②口口 |----|
口口口口 |③---|
54
口⑤口口 |--①②|
口③口⑥ |③-④-|
⑦口②口 |⑤-⑥-|
④口⑧① |⑦-⑧-|
55
①口口③ |①---|
口口口口 |--②-|
口口②口 |----|
口口口口 |③---|
56
口口⑤口 |--①②|
⑥口③口 |③-④-|
口②口⑦ |⑤-⑥-|
①⑧口④ |⑦-⑧-|
57
③口口① |①---|
口口口口 |--②-|
口口口口 |----|
口口②口 |③---|
58
口③⑤口 |--①②|
口⑥②口 |③-④-|
④口⑦① |⑤-⑥-|
口⑧口口 |⑦-⑧-|
59
③口口① |①---|
口口口口 |②---|
口②口口 |③---|
口⑤④口 |--④⑤|
60
口⑨⑧⑦ |①-②-③-|
口③②① |④-⑤-⑥-|
④⑤⑥口 |⑦-⑧-⑨-|
⑩⑪⑫口 |⑩-⑪-⑫-|
61
①口⑬⑫ |①-②③|
⑦⑧③② |④⑤⑥-|
⑨⑩⑤④ |⑦⑧⑨⑩|
⑪口口⑥ |⑪-⑫⑬|
62
⑥⑩口⑨ |①②③④|
口口②① |⑤-⑥-|
口口④③ |⑦-⑧-|
口⑧⑦⑤ |⑨-⑩-|
63
⑫⑬①口 |①-②③|
②③⑧⑦ |④⑤⑥-|
④⑤⑩⑨ |⑦⑧⑨⑩|
⑥口口⑪ |⑪-⑫⑬|
64
⑨口⑩⑥ |①②③④|
①②口口 |⑤-⑥-|
③④口口 |⑦-⑧-|
⑤⑦⑧口 |⑨-⑩-|
65
口①口⑥ |①-②③|
⑨⑩⑤④ |④⑤⑥-|
⑦⑧③② |⑦⑧⑨⑩|
⑪⑫⑬⑭ |⑪⑫⑬⑭|
66
①⑥⑨④ |①-②③|
口口③⑦ |④-⑤-|
⑤口口② |⑥-⑦-|
⑧口口口 |⑧-⑨-|
67
①⑫⑬口 |①-②③|
⑩⑪⑦口 |④-⑤⑥|
⑨⑥④口 |⑦-⑧⑨|
⑧③⑤② |⑩⑪⑫⑬|
68
⑪⑫⑬① |①-②③|
⑩口⑦口 |④-⑤⑥|
⑨⑥④口 |⑦-⑧⑨|
⑧③⑤② |⑩⑪⑫⑬|
69
口⑬⑫① |①-②③|
口②⑪⑩ |④-⑤⑥|
口⑤③⑨ |⑦-⑧⑨|
⑦④⑥⑧ |⑩⑪⑫⑬|
70
①⑬⑫⑪ |①-②③|
口②口⑩ |④-⑤⑥|
口⑤③⑨ |⑦-⑧⑨|
⑦④⑥⑧ |⑩⑪⑫⑬|
71
①口口口 |①-②③|
口口②口 |④⑤⑥⑦|
⑤口④口
⑦③⑥口

⑮口⑫⑭
⑪⑬口⑩
口⑨口口 |⑧⑨⑩⑪|
口口口⑧ |⑫⑬⑭⑮|
72
⑭②⑬⑮ |①②③④|
⑯⑫①⑨ |⑤⑥⑦⑧|
④⑧⑤③ |⑨⑩⑪⑫|
⑩⑥⑪⑦ |⑬⑭⑮⑯|
73
口②口口 |①②③④|
口口⑦口 |⑤⑥⑦⑧|
⑥⑧③①
口④口⑤

⑫口口⑬
⑯⑩口⑨
口口口⑮ |⑨⑩⑪⑫|
⑭口⑪口 |⑬⑭⑮⑯|
74
⑩④①⑪ |①②③④|
口口口⑦ |⑤⑥⑦⑧|
⑥⑧③口 |⑨-⑩-|
口②⑨⑤ |⑪---|
75
⑭口①⑪ |①-②③|
⑤⑫⑧④ |④⑤⑥⑦|
⑩⑦②⑨ |⑧-⑨⑩|
口③⑥⑬ |⑪⑫⑬⑭|
76
口③⑥口 |①-②③|
⑦口口② |④⑤⑥⑦|
口口①口
口⑤④口

口口口口
口口口口
口口⑩⑧ |⑧---|
口口口⑨ |⑨-⑩-|
77
⑦口⑥① |①-②③|
口⑩④⑨ |④⑤⑥⑦|
⑫⑤⑪⑧ |⑧-⑨⑩|
③⑭②⑬ |⑪⑫⑬⑭|
78
⑥②⑤① |①②③④|
④⑩③⑨ |⑤⑥⑦⑧|
⑭⑧⑬⑦ |⑨⑩⑪⑫|
⑫⑯⑪⑮ |⑬⑭⑮⑯|
79
口⑤⑥② |①-②③|
③⑦①口 |④⑤⑥⑦|
口口口④
口口口口

⑭口口口
口口⑬⑪
口⑫⑨口 |⑧-⑨⑩|
⑩口⑧口 |⑪⑫⑬⑭|
80
口③⑥② |①-②③|
⑤⑩⑬⑨ |④⑤⑥⑦|
口⑭⑪④ |⑧-⑨⑩|
⑫⑦⑧① |⑪⑫⑬⑭|
81
口④⑦③ |①②③④|
口口口口 |⑤⑥⑦-|
②口⑨⑤ |⑧---|
口⑥⑧① |⑨---|
82
口②口① |①②③④|
口⑥⑨⑤ |⑤⑥⑦⑧|
口④口③ |⑨---|
口⑧口⑦ |----|
83
⑪①口⑭ |①-②③|
④⑧⑫⑤ |④⑤⑥⑦|
⑨②⑦⑩ |⑧-⑨⑩|
⑬⑥③口 |⑪⑫⑬⑭|
84
口⑥③口 |①-②③|
②口口⑦ |④⑤⑥⑦|
口①口口
口④⑤口

口口口口
口口口口
⑧⑩口口 |⑧---|
⑨口口口 |⑨-⑩-|
85
①⑥口⑦ |①-②③|
⑨④⑩口 |④⑤⑥⑦|
⑧⑪⑤⑫ |⑧-⑨⑩|
⑬②⑭③ |⑪⑫⑬⑭|
86
①⑤②⑥ |①②③④|
⑨③⑩④ |⑤⑥⑦⑧|
⑦⑬⑧⑭ |⑨⑩⑪⑫|
⑮⑪⑯⑫ |⑬⑭⑮⑯|
87
③⑨②⑥ |①②③④|
⑦①⑩④ |⑤⑥⑦⑧|
⑤⑮⑧⑫ |⑨⑩⑪⑫|
⑬⑪⑭⑯ |⑬⑭⑮⑯|
88
①⑦②④ |①②③④|
⑤⑨⑧⑭ |⑤⑥⑦⑧|
③⑬⑥⑩ |⑨⑩⑪⑫|
⑪⑮⑫⑯ |⑬⑭⑮⑯|
89
③⑪④② |①②③④|
⑤⑦⑧⑭ |⑤⑥⑦⑧|
①⑮⑥⑫ |⑨⑩⑪⑫|
⑨⑬⑩⑯ |⑬⑭⑮⑯|
90
①⑫②⑩ |①②③④|
⑤⑨⑥口 |⑤⑥⑦⑧|
③⑬④⑪ |⑨---|
⑦口⑧口 |⑩⑪⑫⑬|
91
③口①口 |①②③④|
⑦口⑤口 |⑤---|
④口②口 |⑥---|
口口⑥口 |⑦---|
92
口⑧口⑦ |①②③④|
⑪④⑬③ |⑤⑥⑦⑧|
口⑥⑨⑤ |⑨---|
⑩②⑫① |⑩⑪⑫⑬|
93
口口口口 |①②③④|
口②口④ |⑤---|
口⑤口口
口①口③

⑪⑨⑧⑩
口⑬⑫口
⑦口口⑥ |⑥⑦⑧⑨|
口口口口 |⑩⑪⑫⑬|
94
口口口口 |①---|
②口口口 |----|
口口口口 |②---|
口口口① |----|
95
口口②口 |①---|
口口口口 |----|
口口口口 |②---|
口①口口 |----|
96
口口口口 |①-②-③-|
③⑥⑨⑫ |④-⑤-⑥-|
②⑤⑧⑪ |⑦-⑧-⑨-|
①④⑦⑩ |⑩-⑪-⑫-|
97
①④⑦⑩ |①-②-③-|
②⑤⑧⑪ |④-⑤-⑥-|
③⑥⑨⑫ |⑦-⑧-⑨-|
口口口口 |⑩-⑪-⑫-|
98
②口口口 |①---|
口③口⑧ |②-③-④-|
④口⑦口 |⑤---|
①⑤口⑥ |⑥-⑦-⑧-|
99
口③①⑤ |①---|
口口⑦口 |②-③-④-|
口⑧口⑥ |⑤---|
②口④口 |⑥-⑦-⑧-|
100
口⑦⑤⑪ |①-②-③-|
①③口⑨ |④-⑤-⑥-|
⑥口口⑫ |⑦-⑧-⑨-|
⑩②⑧④ |⑩-⑪-⑫-|
101
口⑧⑨口 |①-②-③-|
⑦②③⑩ |④-⑤-⑥-|
⑥①④⑪ |⑦-⑧-⑨-|
口⑤⑫口 |⑩-⑪-⑫-|
102
口口口口 |①---|
口口口口 |----|
口口口口 |----|
①口口口 |----|

accuracy: 100%
最終更新:2024年07月20日 01:44