アットウィキロゴ
[ ]DENTITY / BEMANI Sound Team "HuΣeR”
BPM:200
Notes:1040

1
□□∨□ |①---|
□①|□ |--②-|
□|①□ |----|
□∧□□ |----|

□□□□
>―①□
□①―<
□□□□

□□□□
□②②□
□②②□
□□□□

2
□□□□ |----|
□□□□ |----|
□□□□ |----|
□□□□ |----|

3
②□□① |①---|
□□①① |--②-|
②□①□ |--③-|
□④□③ |④---|

4
□□□① |--①-|
□□①□ |②-③-|
□□①□ |----|
②□③□ |----|

5
□□□□ |①---|
②□□① |--②-|
□□①□ |----|
□②□□ |③---|

□□③③
□□||
□□||
□□∧∧

6
□□□□ |①---|
□□③□ |②---|
②④□□ |③-④-|
①□⑤□ |⑤---|

7
③□③③ |①---|
□②□⑤ |②---|
□④□□ |③---|
□①□□ |④-⑤-|

8
□①□□ |①---|
□□②□ |--②-|
①□□② |----|
③③□□ |③---|

9
□□□□ |①---|
①□□② |--②-|
□①□□ |----|
□□②□ |③---|

③③□□
||□□
||□□
∧∧□□

10
□□⑥④ |①-②-|
□□①□ |③---|
□②□⑤ |④---|
□□③□ |⑤-⑥-|

11
④④□□ |①---|
⑤□□⑥ |②-③-|
①③④□ |④-⑤-|
□□□② |⑥---|

12
□□①□ |①---|
□②□□ |--②-|
②□□① |----|
□□③③ |③---|

13
□□□□ |①---|
②□□① |--②-|
□□①□ |----|
□②□□ |③---|

□□③③
□□||
□□||
□□∧∧

14
②⑦□□ |①---|
④③□□ |②-③-|
□□□⑥ |④-⑤-|
①□⑤□ |⑥-⑦-|

15
□□③③ |①---|
□□③⑤ |②---|
①④□□ |③---|
□②□□ |④-⑤-|

16
□①□□ |①---|
□□②□ |--②-|
①□□② |----|
③③□□ |③---|

17
□□①① |①---|
□□|| |②---|
□□∧∧ |③---|
□□②□ |④⑤⑥⑦|

□□③③
□③□□
④⑤⑥⑦
□□□□

18
①①□□ |①-②-|
||□□ |③---|
∧∧□□ |④---|
□③②□ |⑤⑥⑦⑧|

④④□□
⑧⑦⑥⑤
□□□□
□□□④

19
□□①① |①---|
□□|| |②-③-|
□③|| |④-⑤-|
②⑥∧∧ |⑥---|

□□□□
□□□□
□□□⑤
□□④□

20
①①□□ |①---|
∧∧□□ |----|
□□□□ |②---|
□□□□ |----|

②②②②
□□□□
□□□□
□□□□

21
⑦⑨⑫⑩ |①-②-③-|
①③⑥④ |④-⑤-⑥-|
⑧□□⑪ |⑦-⑧-⑨-|
□②⑤□ |⑩-⑪-⑫-|

22
⑦⑨□□ |①-②-③-|
①③⑥④ |④-⑤-⑥-|
⑩⑪⑫⑬ |⑦-⑧-⑨-|
⑧②⑤□ |⑩⑪⑫⑬|

23
⑦⑨⑥④ |①-②-③-|
①③⑩⑫ |④-⑤-⑥-|
□□□□ |⑦-⑧-⑨-|
⑧②⑤⑪ |⑩-⑪-⑫-|

24
⑦□⑥④ |①-②-③-|
①③⑩□ |④-⑤-⑥-|
⑨□⑪⑤ |⑦-⑧⑨⑩-|
⑫②⑧⑬ |⑪-⑫⑬⑭-|

□□□□
⑭□□□
□□□□
□□□□

25
⑧⑦⑥⑨ |①-②③④-|
⑭②⑩① |⑤-⑥⑦⑧-|
⑮③⑪⑤ |⑨-⑩⑪⑫-|
⑯④⑫⑬ |⑬-⑭⑮⑯-|

26
⑧⑦⑥⑨ |①-②③④-|
□②⑩① |⑤-⑥⑦⑧-|
⑭③⑪⑤ |⑨-⑩⑪⑫-|
□④⑫⑬ |⑬-⑭-⑮-|

□□□□
□□□⑮
□□□□
□□□□

27
⑨⑦④⑥ |①-②-③-|
①③⑩⑫ |④-⑤-⑥-|
□⑧□⑤ |⑦-⑧-⑨-|
②□⑪□ |⑩-⑪-⑫-|

28
⑨⑦④⑥ |①-②-③-|
①③⑩⑫ |④-⑤-⑥-|
⑧□⑤□ |⑦-⑧-⑨-|
□②□⑪ |⑩-⑪-⑫-|

29
□□④□ |①---|
①⑤□□ |②-③-|
□□②□ |④-⑤-|
①③□□

30
□⑤□□ |①-②-|
□□①□ |③-④-|
□③□④ |⑤-⑥-|
□⑥②□

31
□⑤□□ |①---|
①□④□ |②-③-|
□③□□ |④-⑤-|
①□②□

32
□□④① |①---|
□③□□ |②---|
□□□① |③-④-|
□②□③

33
⑤□□□ |①---|
□□□④ |②-③-|
□①□② |④-⑤-|
③□□□

34
□□□② |①---|
③□□□ |②---|
②□□③ |③---|
□①①□

35
②①③③ |①---|
□□□① |②---|
③□①□ |③---|
□□②②

36
③③□□ |①---|
□□①② |②---|
□①□① |③---|
②②③□

37
□□④④ |①---|
⑤①□□ |②-③-|
①□②② |④-⑤-|
□③□①

38
③③□□ |①---|
□□②① |②---|
②②□③ |③---|
□□□□

39
□⑤□□ |①---|
①□④④ |②-③-|
□③①□ |④-⑤-|
①□②②

40
□□②① |①---|
③③□□ |②---|
□□□□ |③---|
②②③□

41
①②□□ |①---|
□□③③ |②---|
①□②② |③---|
□③□①

42
□□②① |①---|
③③□□ |②---|
②②□③ |③---|
①□□□

43
②①③③ |①---|
□□□① |②---|
□③①□ |③---|
□□②②

44
③③□□ |①---|
□①□② |②---|
①□③① |③---|
②②□□

45
□□⑦③ |①-②-|
④□①□ |③-④⑤|
⑤①□□ |⑥-⑦-|
⑥□②①

46
③□□□ |①-②-|
□②⑤④ |③-④⑤|
□□⑦⑥ |⑥⑦⑧-|
□①□⑧

47
④□③⑦ |①-②-|
⑤□□⑧ |③-④⑤|
⑥②□□ |⑥-⑦⑧|
①□□□

48
⑧□□□ |①-②-|
□□②□ |③④⑤⑥--|
□⑦□① |⑦-⑧-|
③④⑤⑥

49
□③③④ |①-②-|
②□□⑤ |③-④⑤|
⑦□①⑥ |⑥-⑦-|
□□□□

50
③□⑦□ |①-②-|
□④②□ |③-④-⑤-|
□⑤□□ |⑥-⑦-|
⑥□□①

51
⑦⑤□□ |①-②③|
□□□② |④-⑤-|
□□□③ |⑥-⑦-|
□①⑥④

52
□□□① |①-②③|
②③□□ |④⑤⑥-|
④⑤⑧□ |⑦-⑧-|
⑥□□⑦

53
①□⑦③ |①-②-|
④□□① |③-④⑤|
⑤□□□ |⑥-⑦-|
⑥□②□

54
③□□□ |①-②-|
□②⑤④ |③-④⑤|
□□⑦⑥ |⑥⑦⑧-|
□①□⑧

55
④□③⑦ |①-②-|
⑤□□⑧ |③-④⑤|
⑥②□□ |⑥-⑦⑧|
①□□□

56
⑧□□□ |①-②-|
□□②□ |③④⑤⑥--|
□⑦□① |⑦-⑧-|
③④⑤⑥

57
□③③④ |①-②-|
②□□⑤ |③-④⑤|
⑦□①⑥ |⑥-⑦-|
□□□□

58
③□⑦□ |①-②-|
□④②□ |③-④-⑤-|
□⑤□□ |⑥-⑦-|
⑥□□①

59
⑦⑤□□ |①-②③|
□□□② |④-⑤-|
□□□③ |⑥-⑦-|
□①⑥④

60
□□⑪⑫ |①②③④|
②⑥④⑧ |⑤⑥⑦⑧|
①⑤③⑦ |⑨⑩⑪⑫|
⑨⑩□□

61
①□□□ |①---|
②□□□ |--②-|
□□□□ |----|
□□②□

62
□□⑨⑧ |①---②③④-|
□□①⑦ |------⑤⑥|
④③②⑥ |⑦-----⑧⑨|
①□□⑤

63
⑥①□□ |①-②-|
④⑦⑤□ |③-④-|
□⑤□□ |⑤-⑥⑦|
③□②□

64
□□④③ |①②③-|
□□□⑤ |④⑤⑥⑦|
①□⑥□ |⑧---|
⑧②□⑦

65
□□□② |①---|
①□①□ |--②-|
□②□□ |----|
□□①□

66
⑦①□□ |①---②③④-|
⑥□□□ |------⑤⑥|
⑤□□① |⑦---|
②③④□

67
⑧□□④ |①-②-|
□③⑤② |③-④⑤|
□□③⑥ |⑥⑦⑧-|
□□⑦①

68
□①⑤□ |①②③④|
②⑥□⑤ |⑤-⑥-|
⑥③⑦⑧ |⑦-⑧-|
④⑧□⑦

69
①②②① |①---|
□□□□ |--②-|
□□□□ |----|
③□③□ |③---|

□□□□ |④---|
④□□④
□□□□
□□□□

70
⑤①①□ |①---|
③⑤□④ |--②-|
②□④② |----|
□③□□ |③-④-⑤-|

□⑦⑧⑧ |⑥-⑦-⑧-|
□□⑥□
□⑦□□
□□⑥□

71
□□□□ |①---|
□□□□ |----|
□□□□ |----|
①□□① |----|

72
⑨⑪⑬⑮ |①②③④|
①⑤□⑥ |⑤⑥⑦⑧|
⑩⑫⑭② |⑨⑩⑪⑫|
⑦③④⑧ |⑬⑭⑮⑯|

□□□□
□□□□
□□□⑯
□□□□

73
⑦⑨⑫⑩ |①-②-③-|
①③⑥④ |④-⑤-⑥-|
⑧□□⑪ |⑦-⑧-⑨-|
□②⑤□ |⑩-⑪-⑫-|

74
⑦⑨□□ |①-②-③-|
①③⑥④ |④-⑤-⑥-|
⑩⑪⑫⑬ |⑦-⑧-⑨-|
⑧②⑤□ |⑩⑪⑫⑬|

75
⑦⑨⑥④ |①-②-③-|
①③⑩⑫ |④-⑤-⑥-|
□□□□ |⑦-⑧-⑨-|
⑧②⑤⑪ |⑩-⑪-⑫-|

76
⑦□⑥④ |①-②-③-|
①③⑩□ |④-⑤-⑥-|
⑨□⑪⑤ |⑦-⑧⑨⑩-|
⑫②⑧⑬ |⑪-⑫⑬⑭-|

□□□□
⑭□□□
□□□□
□□□□

77
⑧⑦⑥⑨ |①-②③④-|
⑭②⑩① |⑤-⑥⑦⑧-|
⑮③⑪⑤ |⑨-⑩⑪⑫-|
⑯④⑫⑬ |⑬-⑭⑮⑯-|

78
⑧⑦⑥⑨ |①-②③④-|
⑭②⑩① |⑤-⑥⑦⑧-|
⑮③⑪⑤ |⑨-⑩⑪⑫-|
⑯④⑫⑬ |⑬-⑭⑮⑯-|

79
□□□□ |①---|
>――① |②③④⑤|
□□□□ |⑥---|
□□□□ |⑦⑧⑨⑩|

⑥――<
□⑤□②
□□□④
□③□□

⑦□□□
□□⑩□
⑨□□□
□□⑧□

80
□□□□ |①---|
∨□□∨ |----|
|□□| |----|
①□□① |②---|

□□□□
□□□□
□□□□
②□□②

81
⑤□④□ |①---|
①③□① |②-③-④-|
□①①② |⑤---|
□⑤□□

82
□④□⑤ |①---|
□□③□ |②-③-④-|
②□□□ |⑤---|
①□⑤①

83
⑤□④□ |①---|
□③□□ |②-③-④-|
□①①② |⑤---|
□⑤□□

84
□□⑤□ |①---|
②④□② |②-③-|
□□③□ |④-⑤-|
①□□①

85
□④□⑤ |①---|
□□③□ |②-③-④-|
②□□① |⑤---|
□①⑤□

86
□□④□ |①---|
⑦③□□ |②-③-④-|
⑥①①② |⑤-⑥-⑦-|
⑤□□□

87
□①□④ |①-②-③-|
□□②⑤ |④-⑤-⑥-|
□③⑥⑧ |⑦-⑧-⑨-|
□⑨⑦□

88
④⑤④⑤ |①-②-③-|
②③□□ |④---|
①□□□ |⑤---|
⑤□□④

89
□□⑤□ |①---|
②□□□ |②-③-④-|
□①①③ |⑤---|
□④□⑤

90
□⑤□□ |①---|
□①①② |②-③-④-|
③□□□ |⑤---|
⑤□④□

91
□□⑤□ |①---|
②□□□ |②-③-④-|
□①①③ |⑤---|
□④□⑤

92
①②□□ |①-②-③-|
□③⑧⑦ |④-⑤-⑥-|
④⑤□□ |⑦-⑧-⑨-|
⑨□⑥□

93
③②□① |①---|
□□□□ |②---|
③□②① |③---|
□□□□

94
□⑤④□ |①-②-③-|
□□③□ |④---|
□②□□ |⑤---|
⑤①□④

95
□□□① |①-②-③-|
⑤④□② |④-⑤-⑥-|
⑥□③⑨ |⑦-⑧-⑨-|
□⑦⑧□

96
①①④④ |①-②-③-|
⑦⑦②⑧ |④-⑤-⑥-|
⑨③□□ |⑦-⑧-⑨-|
⑤□□⑥

97
⑤□□□ |①---|
□□③□ |②-③-④-|
□④□② |⑤---|
□①①□

98
□□⑤① |①---|
□③□□ |②-③-④-|
□□□□ |⑤---|
②□④∧

99
□⑤□⑤ |①---|
□□③□ |②-③-④-|
①①□□ |⑤---|
□④□②

100
□□□□ |①---|
①―<□ |②---|
□□□□ |③---|
□□□□

□□□□
②□□□
□>―②
□□□□

□□□□
□□□□
□□□③
③―<□

101
□□□⑤ |①---|
□③□① |②-③-④-|
②①④□ |⑤---|
①□①□

102
①□□□ |①---|
|□③□ |②-③-④-|
|□□□ |⑤-⑥-⑦-|
∧④□②

⑤□⑥□
□□□□
□⑦□⑤
□□□□

103
□②□① |①-②-③-|
□④□| |④-⑤-⑥-|
□□③| |⑦-⑧-⑨-|
□□⑨∧

□□□⑦
⑧□⑦⑤
⑥□□□
□□□□

104
③④⑤□ |①-②-③-|
□□□□ |④---|
□□□② |⑤---|
④①□⑤

105
□□□⑤ |①---|
①③□① |②-③-④-|
②□④□ |⑤---|
□□□□

106
①⑤□□ |①---|
|□③□ |②-③-④-|
|□□□ |⑤---|
∧④□②

107
⑤□⑤□ |①---|
□③□□ |②-③-④-|
□□①① |⑤---|
②□④□

108
□□□□ |①---|
□>―① |②---|
□□□□ |③---|
□□□□

□□□□
□□□②
②―<□
□□□□

□□□□
□□□□
③□□□
□>―③

109
③□②□ |①---|
①②③□ |②---|
□③①② |③---|
□①□①

110
□①□① |①---|
②□□| |②---|
①□②| |③---|
□②□∧

□□□③
□③□③
□□□□
③□□□

111
①⑤④□ |①-②-③-|
|□②□ |④-⑤-⑥-|
|③□⑥ |⑦-⑧-⑨-|
∧□□□

⑦□□□
⑦□□□
⑨□⑧□
□□□□

112
□⑧⑦① |①-②-③-|
⑨□⑤② |④-⑤-⑥-|
□⑥□□ |⑦-⑧-⑨-|
③□□④

113
□⑩□⑧ |①---②-|
⑨②⑦④ |③-④-⑤-|
③□⑤⑥ |⑥---⑦-|
□①①⑥ |⑧-⑨-⑩-|

114
②⑩□□ |①---②-|
□③⑨⑥ |③-④-⑤-|
□④⑧⑥ |⑥---⑦-|
①①⑤⑦ |⑧-⑨-⑩-|

115
②□①① |①---②-|
⑩③□⑥ |③-④-⑤-|
□⑨□⑥ |⑥---⑦-|
④⑧⑤⑦ |⑧-⑨-⑩-|

116
⑤④③⑥ |①---②-|
□□①⑥ |③-④-⑤-|
②□①⑧ |⑥---⑦-|
□□□⑦ |--⑧---|

117
⑫⑪⑩⑬ |①②③④⑤⑥|
⑨⑧⑦| |⑦⑧⑨⑩⑪⑫|
⑥⑤④| |⑬⑭--|
③②①∧ |----|

□□□⑭
□□□□
□□□□
□□□□

118
⑬⑩⑪⑫ |①②③④⑤⑥|
|⑦⑧⑨ |⑦⑧⑨⑩⑪⑫|
|④⑤⑥ |⑬⑭--|
∧①②③ |----|

⑭□□□
□□□□
□□□□
□□□□

119
⑮⑦⑭⑯ |①②③④|
⑪⑤⑫⑧ |⑤⑥⑦⑧|
⑨③④⑩ |⑨⑩⑪⑫|
⑬①⑥② |⑬⑭⑮⑯|

120
④□④□ |①---|
□②□□ |②---|
□③③□ |③---|
□①②□ |④---|

121
□□□□ |①---|
①<>① |----|
①□□① |----|
①<>① |②---|

□□□□
②□□②
□□□□
②□□②
最終更新:2024年04月06日 17:57