アットウィキロゴ
BPM:198
1
□□□□ |①---|
①□□① |----|
①□□① |----|
□□□□ |----|
2
③□①□ |①---|
□□⑤④ |--②-|
□□□□ |----|
□②□□ |③-④⑤|
3
□□□□ |①---|
□①□□ |----|
②③□□ |----|
□□□□ |--②③|
4
□②□⑤ |①-②-|
⑥□④□ |--③-|
□□①□ |④---|
□③□□ |⑤-⑥-|
5
□□□□ |①---|
□□□□ |----|
□□□□ |----|
□□①① |----|
6
□①□③ |①---|
□□□□ |--②-|
□□□□ |----|
□□②□ |③---|
7
□□□□ |①---|
□□□□ |----|
①①①① |----|
□□□□ |----|
8
□□□□ |①---|
①②③□ |②---|
□□□□ |③---|
④□□④ |④---|
9
⑥□①① |①---②-|
②□⑤⑤ |③---④-|
□⑧□③ |⑤---⑥-|
□④□⑦ |⑦---⑧-|
10
□□①① |①---②-|
②⑦⑥⑤ |③---④-|
□⑩⑨⑧ |⑤-⑥-⑦-|
□④③□ |⑧-⑨-⑩-|
11
⑥□①① |①---②-|
②□⑤⑤ |③---④-|
□⑧□□ |⑤---⑥-|
□④⑦③ |⑦---⑧-|
12
⑧□①① |①---②-|
②□□□ |③---④-|
⑥□③⑤ |⑤-⑥-⑦-|
⑩④⑨⑦ |⑧-⑨-⑩-|
13
□③②① |①-②-③-|
□⑥⑤④ |④-⑤-⑥-|
□⑨⑧⑦ |⑦-⑧-⑨-|
□⑫⑪⑩ |⑩-⑪-⑫-|
14
④□⑤① |①---②-|
□□③⑦ |③---④-|
②⑥□⑧ |⑤---⑥-|
□□□⑨ |⑦-⑧-⑨-|
15
□□□□ |①-②-③-|
①⑦④⑩ |④-⑤-⑥-|
②⑧⑤⑪ |⑦-⑧-⑨-|
③⑨⑥⑫ |⑩-⑪-⑫-|
16
□①①□ |①---|
□□□□ |----|
□□□□ |----|
□□□□ |----|
17
□□□② |①---|
④□□□ |②-③-|
□③⑤⑤ |--④-|
□①①□ |⑤---|
18
①①□□ |①---|
□⑤⑤③ |②-③-|
②□□□ |--④-|
④□□④ |--⑤-|
19
□□□□ |①---|
②□□④ |②-③-|
□□□□ |--④-|
⑤①③⑤ |⑤---|
20
②⑤⑤② |①---|
③①①④ |②---|
③□□④ |③-④-|
□□□□ |--⑤-|
21
□□□③ |--①-|
□④⑦□ |②-③-|
□⑧⑤□ |④⑤⑥-|
②⑥⑨① |⑦⑧⑨-|
22
①□□④ |①②③-|
⑤⑦⑩② |④⑤⑥-|
③⑪⑧⑥ |⑦⑧⑨-|
□⑨⑫□ |⑩⑪⑫-|
23
⑦①④⑩ |①②③-|
⑤⑪□② |④⑤⑥-|
□□⑧□ |⑦⑧⑨-|
③⑨⑫⑥ |⑩⑪⑫-|
24
□①④□ |①②③-|
⑦□②⑧ |④⑤⑥-|
⑦⑤□⑧ |⑦-⑧-|
③□□⑥ |----|
25
□□□② |①---|
④□□□ |②-③-|
□③⑤⑤ |--④-|
□①①□ |⑤---|
26
①①□③ |①---|
□④④□ |②-③-|
②□□□ |--④-|
⑤□□⑤ |--⑤-|
27
⑤□□⑤ |①---|
□⑥⑥④ |②-③-|
□③①□ |④---|
□□②□ |⑤-⑥-|
28
□④④□ |----|
②□□③ |①---|
②□□③ |②-③-|
①□□① |--④-|
29
□□⑨① |--①-|
□④⑤□ |②-③-|
□⑥⑦□ |④⑤⑥⑦|
②⑧□③ |⑧-⑨-|
30
⑨⑤□⑥ |①②-③|
①□□② |④-⑤⑥|
③□□④ |-⑦⑧-|
⑦□⑧⑩ |⑨-⑩-|
31
□⑨⑥□ |①②③④|
□①②⑩ |⑤-⑥-|
⑦③④□ |⑦⑧-⑨|
⑪⑤⑧⑫ |⑩-⑪⑫|
32
①□④② |-①②-|
⑤□□⑥ |③-④-|
⑤□□⑥ |⑤-⑥-|
⑦③□⑦ |--⑦-|
33
①④□① |----|
□□③□ |①---|
④②□□ |②-③-|
□□□□ |--④-|
34
□□③□ |----|
□□□① |①---|
□□□□ |②---|
□②①□ |③---|
35
①□□□ |①---|
①□⑤⑥ |②---|
③④□② |③-④-|
□□□② |⑤-⑥-|
36
□①①□ |----|
□□□□ |①---|
□□□□ |②---|
□②②□ |----|
37
⑤□⑤① |①---|
②④□□ |②---|
□□□① |③-④-|
②□③□ |--⑤-|
38
□□□□ |----|
□③□□ |①---|
□□②□ |②---|
□□□① |③---|
39
①□□③ |①---|
□③①□ |--②-|
□①③② |----|
□□②② |③---|
40
□②②□ |--①-|
②□□② |----|
①□□□ |②---|
①①□□ |----|
41
④⑥□① |①-②-|
⑥□③⑦ |③-④-|
④□①③ |⑤-⑥-|
②⑧⑤⑦ |⑦-⑧-|
42
④⑧□① |①-②-|
⑥②③□ |③-④-|
④②①⑤ |⑤-⑥-|
□□□⑦ |⑦-⑧-|
43
④□①⑤ |①-②-|
⑥⑥③① |③-④-|
□④⑦□ |⑤-⑥-|
②⑧③⑦ |⑦-⑧-|
44
④④①□ |①-②-|
⑥⑧③⑤ |③-④-|
②⑥□① |⑤-⑥-|
②⑧⑤⑦ |⑦-⑧-|
45
④⑥□① |①-②-|
⑥□③⑦ |③-④-|
④□①③ |⑤-⑥-|
②⑧⑤⑦ |⑦-⑧-|
46
④⑧□① |①-②-|
⑥②③□ |③-④-|
④②①⑤ |⑤-⑥-|
□□□⑦ |⑦-⑧-|
47
④□①⑤ |①-②-|
⑥⑥③① |③-④-|
□④⑦□ |⑤-⑥-|
②⑧③⑦ |⑦-⑧-|
48
④④①□ |①-②-|
⑥⑧③⑤ |③-④-|
②⑥□① |⑤-⑥-|
②⑧⑤⑦ |⑦-⑧-|
49
⑥□①① |①---②-|
⑦□③⑨ |③-④-⑤-|
⑧□④⑨ |⑥-⑦-⑧-|
②⑩⑤□ |⑨---⑩-|
50
⑪③①① |①---②-|
⑨④⑥□ |③-④-⑤-|
⑩⑤⑦□ |⑥-⑦-⑧-|
□□⑧② |⑨-⑩-⑪-|
51
□⑤⑩① |①---②-|
□③⑧⑥ |③-④-⑤-|
□④⑨□ |⑥---⑦-|
⑦□□② |⑧-⑨-⑩-|
52
①□□□ |①---②-|
⑨⑤□⑧ |③-④-⑤-|
⑩③□⑥ |⑥-⑦-⑧-|
⑪④②⑦ |⑨-⑩-⑪-|
53
⑤③②① |①-②-③-|
⑧⑦⑥□ |④---⑤-|
□□④□ |⑥-⑦-⑧-|
□⑩⑨⑪ |⑨-⑩-⑪-|
54
⑤③②① |①-②-③-|
⑧⑦⑥□ |④---⑤-|
□□④□ |⑥-⑦-⑧-|
□⑩⑨⑪ |⑨-⑩-⑪-|
55
□②①③ |①-②-③-|
□⑧⑦⑨ |④-⑤-⑥-|
□⑤④⑥ |⑦-⑧-⑨-|
□⑪⑩⑫ |⑩-⑪-⑫-|
56
①□①③ |①-----|
④□□⑦ |②---③-|
⑤②□⑧ |④-⑤-⑥-|
⑥□□⑨ |⑦-⑧-⑨-|
57
②①①③ |①---|
□□□□ |②---|
④②③□ |③---|
□④□□ |④---|
58
□⑤⑤□ |①---|
⑤③□⑤ |②-③-|
□④□① |--④-|
③□①② |⑤---|
59
①□□④ |①---|
□③②□ |②---|
③□④② |③---|
□□□□ |④---|
60
①⑥⑥□ |①---|
⑤□③⑤ |②-③-|
□①④③ |--④-|
⑤②□⑤ |⑤-⑥-|
61
□□□① |----|
□②□□ |①---|
□□③□ |②---|
□□□□ |③---|
62
□□□□ |①---|
③□□② |②-③-|
③①□② |④-⑤-|
⑤⑤④④ |--⑥-|

□□□□
□□□□
□⑥⑥□
□□□□
63
③①①② |①-②③|
⑤□⑨④ |④⑤⑥⑦|
⑦⑩□⑥ |⑧-⑨-|
□□⑪⑧ |⑩-⑪-|
64
□①①② |①-②-|
⑥□□③ |--③-|
□⑤□④ |--④-|
④□□⑥ |⑤-⑥-|
65
□④④② |①-②-|
□□□③ |--③-|
□□□⑤ |④-⑤-|
□①①⑥ |--⑥-|
66
③④③② |①-②-|
⑤③□③ |--③-|
①⑥①④ |--④-|
①□①⑥ |⑤-⑥-|
67
□□□① |--①-|
□⑥□② |--②-|
④⑤□④ |③-④-|
③□□⑥ |⑤-⑥-|
68
③①③⑥ |①---|
①□②③ |②-③-|
⑤④①□ |--④-|
□⑤□□ |⑤-⑥-|
69
□□⑦□ |--①-|
②④④③ |②-③-|
⑥④④① |④-⑤-|
□□①⑤ |⑥-⑦-|
70
□④□□ |①-②-|
□□□③ |③-④-|
□□□□ |--⑤-|
②①①□ |⑥-⑦-|

⑤□⑦⑥
⑦□□□
□□□⑦
□⑦□□
71
③②□□ |--①-|
□①②① |--②-|
①②①④ |--③-|
□⑤②□ |④-⑤-|
72
□□□② |①-②-|
①①⑥③ |--③-|
□⑤□④ |--④-|
□□④⑥ |⑤-⑥-|
73
□④□② |①-②-|
④□□③ |--③-|
□□①⑤ |④-⑤-|
□①□⑥ |--⑥-|
74
③□③② |①-②-|
□④□③ |--③-|
⑤□□④ |--④-|
①⑥①⑥ |⑤-⑥-|
75
□□□① |--①-|
□□□② |--②-|
□④□④ |③-④-|
③□□⑤ |--⑤-|
76
③①③□ |①---|
①②①□ |②-③-|
③□③□ |--④-|
□①□□ |⑤-⑥-|

□□□⑤
⑥□□□
□⑤□⑤
□□④□
77
④⑦④□ |--①-|
□①③① |②-③-|
④⑤④□ |④-⑤-|
□②⑥① |⑥-⑦-|
78
④□③① |①---|
②□□③ |②-③-|
□□□① |--④-|
⑤②⑤④ |--⑤-|
79
④③④③ |--①-|
②□②□ |--②-|
④①④① |--③-|
□□□□ |--④-|
80
□□□□ |①-②-|
□④⑥□ |③-④-|
□□□② |--⑤-|
③①□⑤ |⑥---|
81
⑤②③□ |①-②-|
□④□□ |--③-|
①□□□ |④-⑤-|
□□□□ |⑥⑦⑧⑨|

□□□□
□□□□
⑨⑧⑦⑥
□□□□
82
□□④① |①-②-|
③□□⑥ |③-④-|
□⑦⑦□ |⑤-⑥-|
□②⑤□ |⑦---|
83
①⑤③□ |--①-|
□□□□ |②-③-|
⑨⑧⑦⑥ |④-⑤-|
④□□② |⑥⑦⑧⑨|
84
⑩□□⑤ |①②③④|
④③②① |⑤-⑥⑦|
⑭⑬⑫⑪ |⑧⑨⑩-|
⑥⑦⑧⑨ |⑪⑫⑬⑭|
85
□⑥①□ |①-②③|
②③④⑤ |④⑤⑥-|
⑭⑬⑫⑪ |⑦⑧⑨⑩|
⑩⑨⑧⑦ |⑪⑫⑬⑭|
86
⑤□□⑩ |①②③④|
①②③④ |⑤-⑥⑦|
□⑪⑪□ |⑧⑨⑩-|
⑨⑧⑦⑥ |⑪---|
87
①⑤③□ |--①-|
□⑦⑥□ |②-③-|
□⑨⑧□ |④-⑤-|
④□□② |⑥⑦⑧⑨|
88
⑥⑨⑧⑦ |①-②-③-|
④□□① |④-⑤-⑥-|
⑤□□② |⑦-⑧-⑨-|
⑫⑪⑩③ |⑩-⑪-⑫-|
89
⑥⑫□□ |①-②-③-|
④⑩⑦① |④-⑤-⑥-|
⑤⑪⑧② |⑦-⑧-⑨-|
□□⑨③ |⑩-⑪-⑫-|
90
□□⑦③ |①-②-③-|
④⑧□② |④-⑤-⑥-|
⑤□□① |⑦---⑧-|
⑥⑪⑩⑨ |⑨-⑩-⑪-|
91
⑥⑫⑪⑩ |①-②-③-|
⑤⑨⑧⑦ |④-⑤-⑥-|
④①②③ |⑦-⑧-⑨-|
□□□□ |⑩-⑪-⑫-|
92
⑭⑬⑫□ |①②③④|
⑪⑩⑨□ |⑤⑥⑦⑧|
⑧④③⑤ |⑨-⑩-⑪-|
②⑥⑦① |⑫-⑬-⑭-|
93
□⑬⑫□ |①②③④|
⑪⑩⑨⑭ |⑤⑥⑦⑧|
⑧④③⑤ |⑨-⑩-⑪-|
②⑥⑦① |⑫-⑬-⑭-|
94
⑧⑪⑩⑨ |①-②-③-|
□⑦⑥□ |④-⑤-⑥-|
⑤②③④ |⑦---⑧-|
①□□□ |⑨-⑩-⑪-|
95
⑩⑫⑪⑩ |①-②-③-|
⑦⑨⑧⑦ |④-⑤-⑥-|
④⑤⑥④ |⑦-⑧-⑨-|
①②③① |⑩-⑪-⑫-|
96
□□□□ |①---|
□□□□ |----|
□□□□ |----|
①□□① |----|
最終更新:2024年04月06日 17:58