アットウィキロゴ
VOLAQUAS -GITADO ROCK ver.- / BEMANI Sound Team "DJ TOTTO VS 兎々”
BPM:212
Notes:1098

1
□□①① |----|
□□□□ |----|
□□□□ |①---|
□□□□ |----|

2
②□□□ |①---|
□①①□ |----|
□①①□ |②---|
□□□□ |----|

3
□□□□ |----|
①□□□ |----|
□②□□ |----|
□□□□ |①-②-|

4
③③□□ |①---|
□④⑤□ |--②-|
②□□□ |③---|
①①①① |--④⑤|

5
□⑨⑨□ |①②③④|
①□□② |⑤⑥⑦⑧|
□⑤⑥□ |⑨---|
③⑦⑧④ |----|

6
②②□□ |①---|
□□□□ |----|
①□□① |②---|
□□□□ |----|

7
⑦□①□ |①-②-|
□②□④ |③-④-|
③□⑤□ |⑤-⑥-|
□⑥□⑧ |⑦-⑧-|

8
□□□□ |----|
□□□□ |----|
□□□□ |----|
□□□□ |----|

9
□□□□ |----|
⑤①②⑥ |----|
□③④□ |①②③④|
□⑦⑧□ |⑤⑥⑦⑧|

10
⑤⑧⑦⑥ |①②③④|
⑩□⑨□ |⑤-⑥⑦|
③□□④ |⑧-⑨-|
①□⑪② |⑩-⑪-|

11
□⑤④□ |①-②-|
⑪⑨⑧⑩ |③-④⑤|
③⑦⑥② |⑥⑦⑧⑨|
①⑬⑫□ |⑩⑪⑫⑬|

12
⑥⑦⑧⑤ |①②③④|
□⑨□⑩ |⑤-⑥⑦|
④□□③ |⑧-⑨-|
②⑪□① |⑩-⑪-|

13
□④⑤③ |①-②-|
⑩⑧⑨⑪ |③-④⑤|
②⑥⑦□ |⑥⑦⑧⑨|
□⑫⑬① |⑩⑪⑫⑬|

14
⑤⑧⑦⑥ |①②③④|
⑩□⑨□ |⑤-⑥⑦|
③□□④ |⑧-⑨-|
①□⑪② |⑩-⑪-|

15
③⑤④□ |①-②-|
⑪⑨⑧⑩ |③-④⑤|
□⑦⑥② |⑥⑦⑧⑨|
①⑬⑫□ |⑩⑪⑫⑬|

16
⑥⑦⑧⑤ |①②③④|
□⑨□⑩ |⑤-⑥⑦|
④□□③ |⑧-⑨-|
②⑪□① |⑩-⑪-|

17
⑥⑩⑨⑤ |①②③④|
⑭⑫⑪⑬ |⑤⑥⑦⑧|
⑧④③⑦ |⑨⑩⑪⑫|
②⑯⑮① |⑬⑭⑮⑯|

18
□□□□ |----|
⑩⑨⑧⑦ |--①②|
⑥⑤④③ |③④⑤⑥|
②□□① |⑦⑧⑨⑩|

19
③②①④ |①②③-|
□⑩□□ |④-⑤⑥|
⑩□□⑨ |⑦-⑧-|
⑧⑤⑥⑦ |⑨-⑩-|

20
□⑥②⑦ |--①-|
⑥□⑦② |②-③④|
□①□□ |⑤-⑥-|
□③④⑤ |--⑦-|

21
□⑩□□ |①②③-|
⑩□□⑨ |④-⑤⑥|
③②①④ |⑦-⑧-|
⑧⑤⑥⑦ |⑨-⑩-|

22
⑥□②② |--①-|
□□□□ |②-③④|
⑥①⑦⑦ |⑤-⑥-|
□③④⑤ |--⑦-|

23
⑧⑤⑥⑦ |①②③-|
③②①④ |④-⑤⑥|
□⑩□□ |⑦-⑧-|
⑩□□⑨ |⑨-⑩-|

24
⑥③④⑤ |--①-|
⑥□□② |②-③④|
①□②⑦ |⑤-⑥-|
□□□⑦ |--⑦-|

25
⑨⑦⑥⑩ |①②③④|
□①④⑩ |⑤---|
⑤③⑧□ |⑥⑦⑧⑨|
⑤□②□ |⑩---|

26
□⑦⑥□ |①②③④|
③⑨⑧□ |⑤---|
⑤⑪⑩② |⑥⑦⑧⑨|
⑤①⑫④ |⑩⑪⑫⑬|

□□□□
□□□□
□□□□
□⑬□□

27
⑦□⑨④ |①②③-|
⑥□□① |④-⑤⑥|
⑤⑩□② |⑦-⑧-|
⑧□⑩③ |⑨-⑩-|

28
⑤②□② |--①-|
④⑥□⑥ |②-③④|
③□①□ |⑤-⑥-|
□⑦□⑦ |--⑦-|

29
⑦□④⑨ |①②③-|
⑥□①□ |④-⑤⑥|
⑤⑩②□ |⑦-⑧-|
⑧□③⑩ |⑨-⑩-|

30
⑤②⑥□ |--①-|
④⑥②□ |②-③④|
③⑦□□ |⑤-⑥-|
□①⑦□ |--⑦-|

31
⑦⑨□④ |①②③-|
⑥□⑩① |④-⑤⑥|
⑤□□② |⑦-⑧-|
⑧⑩□③ |⑨-⑩-|

32
⑥□⑥⑤ |--①-|
□②□④ |②-③④|
□□②③ |⑤-⑥-|
□⑦①⑦ |--⑦-|

33
⑦⑤⑩⑥ |①②③④|
⑤□④⑩ |⑤---|
①⑨□⑧ |⑥⑦⑧⑨|
③□②□ |⑩---|

34
⑦□□⑥ |①②③④|
□①⑧□ |⑤---|
⑤⑨④⑩ |⑥⑦⑧⑨|
③⑤⑩② |⑩---|

35
⑦①⑨□ |①-②-③-|
⑤⑧□② |④-⑤-⑥-|
⑩□⑥⑪ |⑦-⑧-⑨-|
③⑦□④ |⑩-⑪-⑫-|

□⑫□□
□□□□
□□□□
□□□□

36
□□⑧⑦ |①-②-③-|
④⑪⑤① |④-⑤-⑥-|
□⑥□⑩ |⑦-⑧-⑨-|
②⑨⑦③ |⑩-⑪-⑫-|

□□□□
□□□⑫
□□□□
□□□□

37
①⑦□□ |①-②-③-|
⑤□⑥⑪ |④-⑤-⑥-|
③⑧④□ |⑦-⑧-⑨-|
⑦⑩⑨② |⑩-⑪-⑫-|

⑫□□□
□□□□
□□□□
□□□□

38
□⑪⑦① |①-②-③-|
④②⑤⑩ |④-⑤-⑥-|
⑥⑨⑫③ |⑦-⑧-⑨-|
□□⑧⑦ |⑩-⑪-⑫-|

39
④□⑩⑨ |①-②-③-|
⑪①⑤□ |④-⑤-⑥-|
⑥⑧⑫② |⑦-⑧-⑨-|
④③⑩⑦ |⑩-⑪-⑫-|

40
⑥④⑨⑩ |①-②-③-|
□①⑤⑦ |④-⑤-⑥-|
⑧⑪⑫② |⑦-⑧-⑨-|
③④□⑩ |⑩-⑪-⑫-|

41
□④⑩⑨ |①-②-③-|
①⑥⑤⑦ |④-⑤-⑥-|
⑧⑪⑫② |⑦-⑧-⑨-|
③④⑩□ |⑩-⑪-⑫-|

42
④□⑨⑩ |①-②-③-|
①⑥⑤⑦ |④-⑤-⑥-|
⑧⑪⑫② |⑦-⑧-⑨-|
④③□⑩ |⑩-⑪-⑫-|

43
⑤①□□ |①---|
③□□□ |②-③-|
④□□□ |--④-|
□②□□ |⑤---|

44
□④□□ |①-②-|
□②□□ |--③-|
□③□□ |④---|
①□□□ |----|

45
①⑤□□ |①---|
□③□□ |②-③-|
□④□□ |--④-|
②□□□ |⑤---|

46
②□□□ |①-②-|
⑤④□□ |--③-|
③⑥□□ |④-⑤-|
⑦①□□ |⑥-⑦-|

47
②□①□ |①---|
④□□① |②-③-|
③⑤□□ |--④-|
□①□□ |⑤---|

48
□□□□ |①-②-|
□①□□ |--③-|
③□□① |④---|
②④①□ |----|

49
□①□① |①---|
⑥③①□ |②-③-|
□⑤□□ |④-⑤-|
②□④④ |⑥---|

50
②⑤①① |①-②-|
⑦③④⑥ |--③-|
①⑤⑥□ |④-⑤-|
③⑦□④ |⑥-⑦-|

51
②□⑤① |①②③④|
⑫⑧⑨⑪ |⑤-⑥⑦|
④⑩□③ |⑧⑨⑩-|
⑥⑭⑬⑦ |⑪⑫⑬⑭|

52
□④⑤① |①-②③|
⑫⑧⑦⑪ |④⑤⑥-|
②⑩⑨③ |⑦⑧⑨⑩|
⑥⑭⑬□ |⑪⑫⑬⑭|

53
②□⑤① |①②③④|
⑫⑧⑨⑪ |⑤-⑥⑦|
④⑩□③ |⑧⑨⑩-|
⑥⑭⑬⑦ |⑪⑫⑬⑭|

54
□④⑤① |①-②③|
□⑧⑦□ |④⑤⑥-|
②⑨⑩③ |⑦-⑧-⑨-|
⑥⑫⑪□ |⑩-⑪-⑫-|

55
②⑧⑨① |①②③④|
⑩⑫⑪⑤ |⑤-⑥⑦|
④□□③ |⑧⑨⑩-|
⑥⑭⑬⑦ |⑪⑫⑬⑭|

56
④⑫⑪⑤ |①-②③|
⑧□□⑦ |④⑤⑥-|
②⑥①③ |⑦⑧⑨⑩|
⑩⑭⑬⑨ |⑪⑫⑬⑭|

57
□⑫⑪⑤ |①②③④|
⑧②①⑨ |⑤-⑥⑦|
④⑥⑦③ |⑧⑨⑩-|
⑩⑭⑬□ |⑪⑫⑬⑭|

58
④□□⑤ |①-②③|
□⑥①⑦ |④⑤⑥-|
②□□③ |⑦---|
□□□⑦ |----|

59
□□□□ |①---|
□⑧⑦⑥ |---②③④|
⑤④③② |⑤---|
①①□□ |---⑥⑦⑧|

60
⑦③⑧④ |①-②-|
①□□□ |③-④-|
□□⑥□ |⑤-⑥-|
⑤□□② |⑦-⑧-|

61
⑥□□② |①---|
⑦□□③ |---②③④|
⑧□□④ |⑤---|
□①①⑤ |---⑥⑦⑧|

62
□⑦②□ |①-②-|
□③⑧□ |③-④-|
□□□④ |⑤-⑥-|
①⑤⑥□ |⑦-⑧-|

63
□□⑦⑥ |①---|
□□□□ |----|
⑤④③② |②③④⑤|
①⑧□① |⑥⑦⑧⑨|

□□□□
□□□□
□□□□
⑨□□□

64
⑧⑦⑭⑬ |①②③④|
③④⑤⑥ |⑤⑥⑦⑧|
⑫⑪⑩⑨ |⑨⑩⑪⑫|
⑯⑮②① |⑬⑭⑮⑯|

65
⑧⑦⑬⑭ |①②③④|
③④⑥⑤ |⑤⑥⑦⑧|
⑫⑪⑩⑨ |⑨⑩⑪⑫|
⑮⑯①② |⑬⑭⑮⑯|

66
⑧⑦⑭⑬ |①②③④|
④③⑥⑤ |⑤⑥⑦⑧|
⑫⑪⑩⑨ |⑨⑩⑪⑫|
⑯⑮①② |⑬⑭⑮⑯|

67
②□□□ |①---|
□□□□ |----|
□□□□ |②---|
□□□① |----|

68
□□□□ |----|
①□□□ |----|
□②□□ |----|
□□□□ |①-②-|

69
③③□□ |①---|
□④⑤□ |--②-|
②□□□ |③---|
①①①① |--④⑤|

70
□⑨⑨□ |①②③④|
①□□② |⑤⑥⑦⑧|
□⑤⑥□ |⑨---|
③⑦⑧④ |----|

71
②②□□ |①---|
□□□□ |----|
①□□① |②---|
□□□□ |----|

72
⑦□①□ |①-②-|
□②□④ |③-④-|
③□⑤□ |⑤-⑥-|
□⑥□⑧ |⑦-⑧-|

73
□□□□ |----|
□□□□ |----|
□□□□ |----|
□□□□ |----|

74
□③□③ |----|
□□□□ |----|
□②□□ |--①②|
□□①□ |③---|

75
①□④□ |--①②|
⑦②□⑤ |③-④⑤|
③⑧⑥⑩ |⑥-⑦⑧|
⑨□□□ |⑨-⑩-|

76
③⑦⑥⑤ |①---|
□□□□ |②-③-|
②□④□ |④---⑤⑥|
□①①□ |⑦---|

77
⑦□□□ |--①②|
①⑧④□ |③-④⑤|
⑨②□⑤ |⑥-⑦⑧|
③□⑥⑩ |⑨-⑩-|

78
□①①□ |①---|
③□⑧□ |②-③-|
□⑦⑥□ |④⑤⑥⑦|
②⑤④□ |⑧---|

79
①□□④ |--①②|
⑨②⑩⑤ |③--④⑤⑥|
③□□⑥ |⑦-⑧-|
⑧□□⑦ |⑨-⑩-|

80
⑤④③□ |①---|
⑦□□⑥ |②--③④⑤|
②⑧□□ |--⑥-|
⑨①①□ |⑦⑧⑨-|

81
⑧⑦⑪⑤ |①②③④|
□⑨④⑫ |⑤-⑥-|
⑩□□③ |⑦-⑧⑨|
□⑥②① |⑩-⑪⑫|

82
⑥□□□ |①-②③|
②⑦□□ |④-⑤-|
⑧③①□ |--⑥⑦|
④⑩⑨⑤ |⑧⑨⑩-|

83
□④□① |--①②|
⑤□②⑦ |③-④⑤|
⑩⑥⑧③ |⑥-⑦⑧|
□□□⑨ |⑨-⑩-|

84
⑤⑥⑦③ |①---|
□□□□ |②-③-|
□④□② |④---⑤⑥|
□①①□ |⑦---|

85
□□□⑦ |--①②|
□④⑧① |③-④⑤|
⑤□②⑨ |⑥-⑦⑧|
⑩⑥□③ |⑨-⑩-|

86
□①①□ |①---|
□⑧□③ |②-③-|
□⑥⑦□ |④⑤⑥⑦|
□④⑤② |⑧---|

87
④□□① |--①②|
⑤⑩②⑨ |③--④⑤⑥|
⑥□□③ |⑦-⑧-|
⑦□□⑧ |⑨-⑩-|

88
□③④⑤ |①---|
⑥□□⑦ |②--③④⑤|
□□⑧② |--⑥-|
□①①⑨ |⑦⑧⑨-|

89
⑤⑨□⑥ |①②③④|
⑩④⑦⑫ |⑤-⑥⑦|
③⑪⑬⑧ |⑧-⑨⑩|
①②□□ |⑪-⑫⑬|

90
⑩⑨②⑥ |①-②③|
⑪③⑦□ |④⑤⑥⑦|
⑫□□⑧ |⑧-⑨-|
⑬⑤④① |⑩⑪⑫⑬--|

91
□□□□ |①---|
⑤②④② |②---|
□③①□ |③-④-|
□②⑥② |⑤-⑥-|

92
□⑤④□ |①-②-|
⑪⑨⑧⑩ |③-④⑤|
③⑦⑥② |⑥⑦⑧⑨|
①⑬⑫□ |⑩⑪⑫⑬|

93
⑥⑦⑧⑤ |①②③④|
□⑨□⑩ |⑤-⑥⑦|
④□□③ |⑧-⑨-|
②⑪□① |⑩-⑪-|

94
□④⑤③ |①-②-|
⑩⑧⑨⑪ |③-④⑤|
②⑥⑦□ |⑥⑦⑧⑨|
□⑫⑬① |⑩⑪⑫⑬|

95
⑤⑧⑦⑥ |①②③④|
⑩□⑨□ |⑤-⑥⑦|
③□□④ |⑧-⑨-|
①□⑪② |⑩-⑪-|

96
③⑤④□ |①-②-|
⑪⑨⑧⑩ |③-④⑤|
□⑦⑥② |⑥⑦⑧⑨|
①⑬⑫□ |⑩⑪⑫⑬|

97
⑥⑦⑧⑤ |①②③④|
□⑨□⑩ |⑤-⑥⑦|
④□□③ |⑧-⑨-|
②⑪□① |⑩-⑪-|

98
⑥⑩⑨⑤ |①②③④|
⑭⑫⑪⑬ |⑤⑥⑦⑧|
⑧④③⑦ |⑨⑩⑪⑫|
②⑯⑮① |⑬⑭⑮⑯|

99
⑧□⑧⑥ |①-②-|
□□□□ |③-④-|
⑦④②⑤ |⑤-⑥-|
③□□① |⑦-⑧-|

100
□②□⑧ |--①-|
④□□② |②-③-|
□⑦⑥⑤ |④-⑤⑥|
③□④① |⑦-⑧-|

101
①⑦⑦□ |①-②-|
⑤①②□ |③---|
③□⑥□ |④-⑤-|
④③□② |⑥-⑦-|

102
②□□□ |--①-|
□⑨⑧④ |②-③-|
②⑦⑥⑤ |④-⑤⑥|
□③①④ |⑦-⑧⑨|

103
□□④□ |①---|
①⑦□⑥ |----|
③□□□ |②-③-④-|
□⑤②□ |⑤-⑥-⑦-|

104
⑧⑥□⑦ |①-②-③-|
④□③□ |④-⑤-⑥-|
□②⑤① |⑦-⑧-|
⑨□□⑩ |⑨-⑩-|

105
⑥⑧①⑦ |①---|
□□□① |----|
②□□③ |②③④⑤|
□④⑤□ |⑥⑦⑧⑨|

□□⑨□
□□□□
□□□□
□□□□

106
⑬⑮⑯⑭ |①②③④|
①⑦⑧② |⑤⑥⑦⑧|
⑨③④⑩ |⑨⑩⑪⑫|
⑤⑪⑫⑥ |⑬⑭⑮⑯|

100
⑬⑭⑮⑯ |①②③④|
①⑥⑦④ |⑤⑥⑦⑧|
⑨②③⑫ |⑨⑩⑪⑫|
⑤⑩⑪⑧ |⑬⑭⑮⑯|

107
□□□□ |----|
①①①□ |----|
□①□□ |①---|
□①□□ |----|

108
□□□□ |----|
□□□□ |----|
□□□□ |----|
□□□□ |----|

109
□□□□ |----|
□□□□ |----|
□□□□ |----|
□□□□ |----|

110
□□□□ |----|
□□□□ |----|
□□□□ |----|
□□□① |①---|
最終更新:2024年04月06日 17:59