アットウィキロゴ
BPM:132
1
□□④□ |----|
⑤③□⑤ |----|
②□□① |-①-②|
□□□① |③④-⑤|
2
②□□② |--①-|
③□⑤□ |--②-|
□④□□ |--③-|
□①①□ |④-⑤-|
3
⑤□①⑤ |①--②|
□□□① |----|
②④⑥□ |③④-⑤|
③②□⑦ |-⑥⑦-|
4
□①④□ |①②-③|
③□□□ |-④-⑤|
□□□⑤ |-⑥--|
□⑥②□ |⑦-⑧-|

□⑧□⑧
□□□□
⑦□⑦□
□□□□
5
□□□□ |①②③④|
③□③□ |⑤---|
□②□④ |-⑥--|
①□⑤□ |⑦⑧-⑨|

□□□□
⑨□⑧⑨
⑥⑦□□
□□□⑥
6
②□□② |--①-|
□⑤□③ |--②-|
□□④□ |--③-|
□①①□ |④-⑤-|
7
②③□③ |①--②|
□□□③ |--③-|
②②□① |----|
□①□① |④-⑤-|

□□□□
④□□□
□□□□
□⑤□□
8
□□□□ |①--②③④|
□□①□ |⑤---|
②③④⑤ |⑥-⑦-⑧-|
□□□□ |⑨-⑩-⑪-|

⑨⑦⑩⑧
⑦□⑧⑥
⑪⑨□⑩
□⑪⑥□
9
□④□□ |①②--|
□□□③ |③-④-|
□□①□ |⑤⑥⑦⑧|
②□□① |-⑨-⑩|

⑧□⑧□
□⑩⑦□
□⑥□□
□⑨⑤⑨
10
□⑤□⑤ |①-②-|
⑦□⑤⑧ |③④-⑤|
□□①④ |--⑥-|
②⑥③□ |⑦-⑧-|
11
①□□□ |①-②③|
□□③□ |----|
□②□① |-④-⑤|
□□□□ |⑥⑦⑧⑨|

□⑤□⑤
□⑧⑦□
□⑥⑨□
④□④□
12
①⑧□⑧ |①-②③|
④□⑦□ |----|
①□⑥② |-④-⑤|
□⑤③④ |⑥⑦⑧-|
13
④□④□ |①-②③|
□□⑤① |----|
□③□⑦ |-④-⑤|
①⑥②□ |⑥-⑦-|
14
□③□□ |①-②③|
①④□④ |-④-⑤|
①□②□ |-⑥-⑦|
⑤□⑤□ |⑧⑨⑩⑪|

⑩□⑥⑩
□□⑨□
□⑧⑪□
□□□⑦
15
□①□□ |①-②③|
③□□□ |----|
□□□□ |-④--|
□②□□ |⑤-⑥-|

□⑤□□
□□□⑥
⑤□④④
□□⑥□
16
□□□□ |①②③④|
③□③□ |----|
□②④□ |-⑤-⑥|
①□□□ |⑦-⑧-⑨-|

□⑥□⑨
□□⑧□
□⑦□□
□□□⑤
17
①⑤⑩□ |①-②-③-|
②⑨□□ |④---|
③□⑧□ |-⑤-⑥|
④⑦□⑥ |⑦⑧⑨⑩|
18
□□□□ |①--②|
①□②② |--③-|
①①□② |-④--|
③③③③ |⑤-⑥-|

□□□⑥
⑤□□□
□□④□
□□□□
19
①□□□ |①-②③|
□□③□ |----|
□②□① |-④-⑤|
□□□□ |⑥⑦⑧⑨|

□⑤□⑤
□⑧⑦□
□⑥⑨□
④□④□
20
①⑧□⑧ |①-②③|
④□⑦□ |----|
①□⑥② |-④-⑤|
□⑤③④ |⑥⑦⑧-|
21
①□①□ |①-②-|
□④⑤⑤ |③④-⑤|
③②□② |-⑥--|
□□⑥⑥ |⑦-⑧-|

□□□□
□□□□
□□□⑧
⑦□□□
22
①⑤□⑤ |①-②③|
①□④□ |-④-⑤|
③□⑥□ |⑥--⑦|
□②□□ |⑧⑨⑩⑪|

□□□□
□□⑪□
□⑩□□
⑧□⑦⑨
23
①□①□ |①-②-|
□②□② |③---|
③□③□ |-④-⑤|
□□□□ |⑥-⑦-|

□□□□
□⑥□□
□□⑦□
④④⑤□
24
□①□① |①-②-|
②⑤②⑥ |③---|
□③□③ |-④-⑤|
④□⑦□ |-⑥-⑦|
25
⑤②⑤□ |①②③④|
①⑩③□ |⑤---|
⑥⑥⑪④ |-⑥-⑦|
⑧□⑨⑦ |⑧⑨⑩⑪|
26
□①□① |①--②|
②□②① |--③-|
②③□③ |-④--|
□□□③ |⑤-⑥-|

□□□□
□□□⑥
□□□□
⑤④④□
27
①③①③ |①--②|
□②□□ |--③-|
①③□③ |④-⑤-|
□②□② |⑥-⑦-|

□□□□
④□⑥□
⑦□□□
□□⑤□
28
⑤②②④ |①②--|
□④□⑦ |③-④-|
□⑧⑧③ |⑤-⑥-|
□③⑥① |⑦⑧--|
29
□③③□ |①--②|
③②□③ |--③-|
①□□② |④-⑤-|
②①□① |⑥-⑦-|

④□□⑥
□⑦□□
□□⑤□
□□□□
30
⑤□□□ |①-②-|
⑤□④⑧ |③④-⑤|
②⑦□□ |--⑥-|
②③①⑥ |⑦-⑧-|
31
③①③① |①--②|
□□②□ |--③-|
③□③① |④-⑤-|
②□②□ |⑥-⑦-|

□□□□
□⑥□④
□□□⑦
□⑤□□
32
④②②⑤ |①②--|
⑦□④□ |③-④-|
③⑧⑧□ |⑤-⑥-|
①⑥③□ |⑦⑧--|
33
□③③□ |①--②|
③□②③ |--③-|
②□□① |④-⑤-|
①□①② |⑥-⑦-|

⑥□□④
□□⑦□
□⑤□□
□□□□
34
⑤⑤□□ |①-②-|
⑥③□□ |③④-⑤|
□⑦□② |--⑥-|
⑧①④② |⑦-⑧-|
35
□□□□ |①---|
□①①□ |----|
□□□□ |----|
□□□□ |--②③|

□□□②
□□③□
□□□□
□□□□
36
④④⑥⑥ |①---|
③□□□ |②-③-|
□①□⑤ |④--⑤|
□□⑤② |--⑥-|
37
□□□□ |①---|
①□①□ |----|
□□□□ |②--③|
□①□□ |--④-|

□④④□
④③④③
②②③③
②□②□
38
⑤⑤□② |--①-|
□□③□ |----|
□④□□ |--②-|
□①①□ |③-④⑤|
39
□□□□ |--①②|
□④⑤① |③④⑤-|
□□③□ |-⑥--|
□②□① |⑦-⑧-|

□⑥□□
⑦□□□
⑥□□□
□□□⑧
40
□⑥①⑥ |①-②-|
⑤□②① |③-④⑤|
□②□③ |-⑥--|
□④③□ |⑦-⑧-|

□□□□
□□□⑦
□□□□
⑧□□□
41
⑤□□□ |①-②-|
□□①□ |③-④⑤|
④②□□ |-⑥--|
□□□③ |⑦-⑧⑨|

□⑥⑥⑥
□□□□
□⑨□□
⑦⑦⑦⑧
42
⑦⑦④□ |①--②|
②③①□ |----|
②⑥□⑤ |-③-④|
□□□□ |⑤-⑥⑦|
43
□□□□ |--①-|
□③③□ |-②③-|
□□②□ |-④--|
□□□① |⑤-⑥-|

□④□□
⑤□□□
④□□□
□□□⑥
44
⑤⑤①□ |①-②-|
④④②① |③-④⑤|
□②□③ |----|
□□③□ |⑥-⑦-|

□□□⑥
□□□□
□□□□
□□⑦□
45
③□③④ |①-②-|
①⑨①⑧ |③-④⑤|
⑤⑥⑥□ |---⑥|
⑦②□② |-⑦⑧⑨|
46
⑦②⑦② |①②③④|
□□③□ |-⑤⑥-|
⑤⑥□④ |⑦---|
□□①□ |----|
47
□□③□ |①-②③|
③④□① |-④-⑤|
□□⑤④ |--⑥-|
⑤②□□ |⑦-⑧-|

⑦□□□
□□⑥□
□□□□
□⑧□□
48
□③⑦□ |①-②③|
①□④③ |-④-⑤|
④⑤□⑥ |--⑥-|
⑧□②⑤ |⑦-⑧-|
49
①⑦□③ |①-②③|
④③□□ |-④-⑤|
□□④⑤ |--⑥-|
⑧⑤②⑥ |⑦-⑧-|
50
③□□① |①-②③|
□□③⑤ |-④-⑤|
④⑤□□ |--⑥-|
□②④□ |⑦-⑧-|

□□□⑧
□⑦□□
□□□□
□□□⑥
51
□④□□ |①②③④|
③□⑤□ |⑤⑥⑦⑧|
□②⑧⑥ |⑨⑩⑪⑫|
□⑦①□ |⑬⑭⑮⑯|

⑩⑯⑩□
⑮⑪□⑨
⑫⑭□□
□□⑬□
52
⑥□⑦⑦ |①②③④|
⑧⑤①□ |⑤⑥⑦-|
□□④② |----|
□□⑨③ |⑧-⑨-|
53
④①④① |①--②|
□④□③ |--③-|
②□③① |④---|
②②□③ |⑤⑥⑦⑧|

□⑧□⑧
□□⑦□
□⑥□□
□□⑤□
54
③⑦③⑦ |-①--|
①⑨⑥① |②-③-|
②⑤②□ |④⑤⑥⑦|
□⑧⑧④ |-⑧-⑨|
55
⑧⑧□⑥ |①---|
②⑤□② |--②-|
③⑦①③ |-③-④|
②□④② |⑤⑥⑦⑧|
56
□□④□ |--①②|
□□□① |-③④-|
□□□④ |-⑤--|
③②□① |⑥-⑦⑧|

□⑤□□
⑥□□□
⑤□⑧□
□□□⑦
57
②□□□ |①②-③|
⑤①⑤① |-④-⑤|
□④□④ |-⑥-⑦|
③□③□ |⑧⑨⑩⑪|

□⑥⑧⑥
□⑨□□
⑦□⑩□
□⑪□□
58
⑤□□□ |①-②-|
□□□① |③-④⑤|
④②□□ |-⑥-⑦|
①□□③ |⑧⑨⑩⑪|

□⑥⑥⑥
□⑧□⑦
□□□⑪
□⑩⑨□
59
□□□□ |①②③④|
□□③□ |----|
□②④□ |-⑤-⑥|
①□□① |⑦⑧⑨⑩|

⑦□□□
□□□⑧
⑤□⑩⑥
⑨□⑤□
60
□□①① |①-②③|
②□⑥□ |-④⑤⑥|
□⑤□□ |-⑦-⑧|
□③□④ |⑨⑩⑪⑫|

□⑦□□
⑨⑪□□
⑦□⑧⑩
□□⑫□
61
□⑥①⑥ |①-②-|
⑤□⑤① |③④⑤⑥|
□②④□ |----|
②□□③ |⑦⑧⑨⑩|

□□□□
□⑨□⑧
□□□□
⑦□⑩□
62
③□③④ |①-②-|
①⑨①⑧ |③-④⑤|
⑤⑥⑥□ |---⑥|
⑦②□② |-⑦⑧⑨|
63
□②□② |①②③④|
□□③□ |-⑤⑥-|
⑤⑥□④ |⑦-⑧⑨|
□□①□ |-⑩-⑪|

⑦⑨⑦⑨
□⑪□□
□□□□
□⑩⑩⑧
64
②⑥⑥□ |①---|
③□□□ |②③④⑤⑥---|
④□①□ |----|
⑤□□□ |----|
65
□□□□ |----|
□□□□ |----|
□□□□ |----|
□□□□ |----|
最終更新:2024年07月14日 18:55