アットウィキロゴ
1
④⑥⑤① |①-②-|
③⑧⑦② |③-④-|
②□⑨③ |⑤⑥⑦⑧|
①□□④ |⑨---|

2
⑤□④⑤ |①-②-|
③⑤⑤□ |③-④-|
□⑤⑤② |⑤---|
□①□□ |----|

3
□□□□ |①---|
①□□① |----|
①□□① |----|
①□□① |----|

4
□□□□ |----|
□□□□ |----|
□□□□ |----|
□□□□ |----|

5
□□□□ |----|
□□□□ |----|
□□□□ |----|
□□□□ |----|

6
□□□□ |----|
□□□□ |----|
□□□□ |----|
□□□□ |----|

7
①①③① |①---|
②②⑥③ |②-③-|
④④⑥① |④---|
⑤⑤⑤⑤ |⑤-⑥-|

8
①①③① |①---|
②②⑧③ |②-③-|
④④⑧① |④-⑤⑥|
⑦⑦⑥⑤ |⑦-⑧-|

9
①①②② |①-②-|
③⑨⑩④ |③-④-|
③⑦⑧④ |⑤⑥⑦⑧|
⑤⑪⑫⑥ |⑨⑩⑪⑫|

10
①①④② |①-②-|
④□□④ |--③-|
□④④□ |④---|
④□□③ |----|

11
①□④① |①-②-|
③□②⑦ |③-④-|
⑤⑧□④ |⑤-⑥-|
⑦□□⑥ |⑦-⑧-|

12
①□④① |①-②-|
③□②⑦ |③-④-|
⑤⑨⑩④ |⑤-⑥-|
⑦□⑧⑥ |⑦⑧⑨⑩|

13
①□④① |①-②-|
③□②⑦ |③-④-|
⑤⑧□④ |⑤-⑥-|
⑦□□⑥ |⑦-⑧-|

14
①⑦④① |①-②-|
③□②⑨ |③-④-|
⑤⑩⑧④ |⑤⑥⑦⑧|
⑨⑫⑪⑥ |⑨⑩⑪⑫|

15
①④②① |①--②|
②③①④ |--③-|
⑤□④□ |④--⑤|
□□⑤③ |--⑥-|

□□□⑥
□□□□
□□□□
□⑥□□

16
③⑤②□ |①--②|
④②⑤④ |--③-|
□①③① |④--⑤|
①□④□ |--⑥-|

□□□□
□□□□
□□□□
⑥□□⑥

17
③□④② |①-②-|
⑤①□④ |③-④-|
①③②⑥ |⑤⑥⑦⑧|
⑦□⑧□ |⑨⑩⑪⑫|

□□□□
□⑨⑩□
⑪□⑫□
□□□□

18
①②③④ |①②③④|
⑫□□⑤ |⑤⑥⑦⑧|
⑪□□⑥ |⑨⑩⑪⑫|
⑩⑨⑧⑦ |⑬⑭⑮⑯|

⑬⑭⑮⑯
□□□□
□□□□
□□□□

19
□□□□ |----|
□□□□ |----|
□□□□ |----|
□□□□ |----|

20
①①④② |①-②-|
④□□④ |--③-|
□④④□ |④---|
④□□③ |----|

21
□□③□ |①---|
□②□□ |--②-|
①□□□ |----|
□□□□ |③---|

22
□□□□ |①---|
□□②□ |--②-|
□□□① |----|
□□□□ |③---|

□□□□
□□□□
③③③③
□③③□

23
①③□① |①---|
②□□□ |②---|
③□□④ |③---|
④□⑤② |④-⑤-|

24
①③□① |①---|
②□□□ |②---|
③□④⑤ |③-④-|
⑤⑥⑦② |⑤⑥⑦-|

25
①⑥②① |①-②-|
③④⑤□ |③④⑤-|
⑥□⑦□ |⑥-⑦-|
⑧⑧□③ |⑧--⑨⑩⑪|

□□□⑨
□□□⑩
□□□⑪
□□□□

26
①⑥③□ |①-②③|
④⑧⑤⑨ |④⑤⑥-|
⑦②□⑩ |⑦⑧-⑨|
⑩⑪⑫① |⑩⑪⑫-|

27
①⑦②① |①-②-|
③④⑤⑥ |③④⑤⑥|
⑦①⑧⑧ |⑦---|
⑧□⑨③ |⑧-⑨-|

28
①⑦①① |①-②-|
③④⑤⑥ |③④⑤⑥--|
⑦②⑧□ |⑦-⑧-|
□□□⑦ |⑨⑩⑪-|

□□⑨□
□□□□
□□□⑨
⑨⑩⑪□

29
①□□① |①-②-|
③④②④ |③-④-|
⑤②⑤⑥ |⑤-⑥⑦|
⑥⑦⑧③ |⑧--⑨⑩⑪|

□⑪⑩⑨
□□□□
□□□□
□□□□

30
①□□□ |①---|
□③②□ |②---|
□②③□ |③---|
□③□① |④---|

□□□□
④□□④
□□□□
④□□④

31
④⑤⑨④ |①-②-③-|
□□③□ |④-⑤-⑥-|
①②□① |⑦-⑧-⑨-|
⑦⑧⑥⑦ |⑩-⑪-⑫-|

□□□□
⑩⑪⑫□
□⑫⑪⑩
□□□□

32
⑦②⑥□ |①-②-③-|
□□⑧① |④-⑤-⑥-|
①□□⑦ |⑦---⑧-|
④⑤③④ |⑨---⑩-|

□□□⑨
□□□□
⑨⑩□□
□□□□

33
⑦⑥□⑦ |①-②-③-|
①③□① |④-⑤-⑥-|
□□②□ |⑦---|
④□⑤④ |⑧-⑨-⑩-|

□□□□
□⑩⑨⑧
⑧⑨⑩□
□□□□

34
⑦⑥②□ |①-②-③-|
①□□□ |④-⑤-⑥-|
⑦□□① |⑦---|
④③⑤④ |----|

35
□⑧□① |①-②-③-④--⑤--|
□□⑥② |⑥-⑦-|
□⑤□③ |⑧-⑨-|
⑦⑩⑨④ |⑩⑪⑫⑬|

□□⑬⑬
□⑫□□
□□⑪⑪
□□□□

36
①⑥⑩□ |①-②-③-④--⑤--|
②□⑤⑧ |⑥-⑦-|
③⑨□□ |⑧-⑨-|
④□⑦□ |⑩⑪⑫⑬|

□□□□
⑪⑪□□
□□⑫⑫
⑬⑬□□

37
②□□① |①-②-|
⑥⑦①④ |③-④-|
③⑤□□ |⑤-⑥⑦|
□□⑤③ |⑧--⑨⑩⑪|

□⑪⑩⑨
□□⑧□
□□□□
□□□□

38
①□□□ |①---|
□□□□ |----|
□□□□ |----|
□□□① |----|

39
□④③② |①-②-|
⑤□⑥□ |③-④-|
⑦①①□ |⑤-⑥-|
□□□⑧ |⑦-⑧-|

40
③□④⑤ |①-②-|
⑥□⑧③ |③-④-|
⑤②⑥□ |⑤-⑥-|
①④②⑦ |⑦-⑧-|

41
②③④□ |①-②③|
□□□⑥ |④-⑤-|
⑧①□⑤ |⑥-⑦-|
□⑦①□ |⑧-⑨-|

□□□□
□□□□
□□□□
□□⑨□

42
⑤②②⑥ |①-②-|
③⑥④□ |③-④-|
□④⑤③ |⑤-⑥-|
①□□□ |⑦---|

□□□□
□□□□
□□□□
⑦⑦⑦⑦

43
□②②□ |①---|
①④□① |----|
①③□① |②-③-|
□□④□ |④-⑤-|

□□□□
□□⑤□
⑤□□□
□□□□

44
②③⑤⑦ |①-②-|
□⑤⑥② |③-④-|
□④③① |⑤-⑥-|
⑥□□④ |⑦-⑧-|

□□□□
□□□□
□□□⑧
□□□□

45
②③④□ |①-②③|
⑥⑧□⑤ |④-⑤-|
□□□□ |⑥-⑦-|
⑦①①⑧ |⑧-⑨-|

□□□□
□□□□
□□⑨□
□⑨□□

46
①②□① |①-②-|
④□②□ |③-④-|
③□□③ |⑤---|
⑤□④□ |----|

47
□④③② |①-②-|
⑤⑧⑥□ |③-④-|
⑦①①⑤ |⑤-⑥-|
□③④⑧ |⑦-⑧-|

48
③□④⑤ |①-②-|
⑥□⑧③ |③-④-|
⑤②⑥□ |⑤-⑥-|
①④②⑦ |⑦-⑧-|

49
②③④□ |①-②③|
⑤⑥□⑥ |④-⑤-|
⑧①□⑤ |⑥-⑦-|
□⑦①□ |⑧-⑨-|

⑨□□□
□□□□
□□□□
□□⑨□

50
⑦②②⑧ |①-②-|
③⑤④⑧ |③-④-|
⑦④⑥③ |⑤-⑥-|
①⑤□⑥ |⑦-⑧-|

51
⑦②⑤⑦ |①-②③|
⑥□③⑧ |④-⑤-|
□④⑥⑤ |⑥-⑦-|
①⑧①□ |⑧-⑨-|

□□□□
□⑨□□
□□□□
□□⑨□

52
④⑥⑤□ |①-②-|
□⑧⑦□ |③-④-|
□②⑨③ |⑤⑥⑦⑧|
①□□① |⑨-⑩-|

□□□□
□□□□
□□□□
⑩□□□

53
④⑩⑤⑤ |①-②③|
⑧□⑨③ |④-⑤-|
②□⑦① |⑥⑦⑧⑨|
□⑥①□ |⑩⑪⑫⑬|

□□□□
□□□□
⑫□□⑪
□□⑬□

54
⑦⑦⑦⑦ |①②③④|
⑥①□④ |⑤-⑥-|
□⑤□□ |⑦---|
③□□② |⑧---|

□□□□
□⑧⑧□
⑧□□⑧
□□□□

55
⑥□□③ |①---|
⑦□□④ |②-③④|
□□□□ |⑤-⑥⑦|
①②⑤⑧ |⑧---|

56
□⑦⑤□ |①---|
□⑧④□ |②③④⑤|
□③□□ |⑥-⑦⑧|
①②⑥⑨ |⑨---|

57
⑥□□③ |①---|
⑦□□④ |②-③④|
□□□□ |⑤-⑥⑦|
①②⑤⑧ |⑧---|

58
□□□□ |①---|
□□□□ |----|
□□□□ |----|
①□□□ |----|

59
⑥□□③ |①---|
⑦□□④ |②-③④|
□□□□ |⑤-⑥⑦|
①②⑤⑧ |⑧---|

60
□⑦⑤□ |①---|
□⑧④□ |②③④⑤|
□③□□ |⑥-⑦⑧|
①②⑥⑨ |⑨---|

61
□⑪⑫□ |①-②-|
③⑨⑩② |③-④-|
□⑦⑧④ |⑤⑥⑦⑧|
①⑤⑥□ |⑨⑩⑪⑫|

62
□□□□ |----|
□□□□ |----|
□□□□ |----|
□□□□ |----|

63
□□□□ |----|
□①□□ |----|
□□□□ |----|
□①□□ |--①-|

64
⑥⑦②□ |--②-|
⑤⑧⑧⑧ |③④⑤⑥|
④⑦⑧② |⑦--⑧|
③□⑧□ |----|

65
⑦□④② |①-②-|
□□⑧⑥ |③④⑤⑥|
③⑦□□ |⑦-⑧-|
①⑤□⑧ |⑨⑩⑪⑫|

□⑪□⑫
□□□□
□□□□
⑨□⑩□

66
⑨□②□ |①②③-|
①③⑧④ |④⑤⑥⑦|
①⑤⑥④ |⑧⑨⑩-|
□⑦⑩⑧ |⑪⑫⑬⑭|

□⑪⑭⑫
□⑬□□
⑪□□□
□□□□

67
⑤⑨□⑩ |①②③-|
①□④⑧ |④⑤⑥⑦|
□③④② |⑧⑨⑩-|
①⑦⑧⑥ |⑪⑫⑬⑭|

□□⑫□
⑬□□□
⑪□□⑭
⑪□□□

68
⑤⑥⑬⑪ |①-②-③-④--⑤--|
⑭③④⑨ |-⑥⑦⑧|
⑩①②⑬ |⑨⑩⑪⑫|
⑫⑧⑨⑦ |⑬⑭⑮-|

□□□□
□□□□
□□⑮□
□□□□

69
⑤⑥⑦⑧ |①--②|
⑨□①③ |--③-|
③①□□ |④--⑤⑥⑦|
④②④② |⑧-⑨-|

70
⑩⑩□⑪ |①--②--③-④-⑤-|
⑫④③⑦ |⑥⑦⑧⑨|
⑧⑥⑤① |⑩⑪⑫-|
□②⑨① |⑬⑭⑮⑯|

□□⑬□
□□□□
□□□⑬
⑭⑯□⑮

71
⑥⑧⑪⑦ |①②③-|
⑧②①③ |④⑤⑥⑦|
⑫④①⑨ |⑧⑨⑩-|
⑩⑭⑤⑬ |⑪⑫⑬⑭|

72
⑩□□⑦ |①-②-③-④--⑤--|
⑥②①⑤ |⑥⑦⑧⑨|
⑫④③⑨ |⑩⑪⑫-|
⑧□⑪□ |⑬⑭⑮⑯⑰⑱|

□⑯⑬□
□⑰⑭□
□⑱⑮□
□□□□

73
③⑤⑥③ |①--②|
②⑥⑤① |--③-|
④□□④ |④-⑤-|
②□□① |⑥--⑦⑧⑨|

□□□□
□□□□
□□□□
□⑨⑧⑦

74
③⑦⑩④ |①-②③|
③⑨⑥□ |④-⑤⑥|
⑤⑤②⑧ |⑦-⑧⑨|
①□□⑧ |⑩-⑪-|

□□□□
□□□□
□□⑪□
⑪□□□

75
①□⑦③ |①-②③|
④⑧③① |④-⑤⑥|
□⑥⑨⑨ |⑦⑧⑨⑩|
⑩②⑤⑤ |--⑪-|

⑪□□□
□□□⑪
□□□□
□□□□

76
⑨⑤④⑥ |①-②③|
③⑤①⑩ |④-⑤⑥|
③⑨□□ |⑦⑧⑨⑩|
⑦①⑧② |--⑪-|

□□□□
□□⑪□
□□⑪□
□□□□

77
□□①□ |①---|
①□□□ |----|
□□□① |----|
□①□□ |----|

78
①⑤⑨① |①-②③|
⑤⑪③⑨ |-④⑤-|
⑪⑧④③ |⑥⑦⑧⑨|
⑥②⑦⑩ |-⑩⑪-|

79
①⑤⑨① |①-②③|
⑤⑪③⑨ |-④⑤-|
⑪⑧④③ |⑥⑦⑧⑨|
⑥②⑦⑩ |-⑩⑪-|

80
③⑦⑫⑥ |①②③④|
⑦⑪④□ |⑤⑥⑦-|
⑪⑨②④ |⑧⑨⑩⑪|
⑤①⑧⑩ |⑫⑬⑭-|

□□□□
□□□⑭
□□⑭□
□⑬□□

81
③⑤⑩④ |①②③④|
⑦□④⑫ |⑤⑥⑦⑧|
⑨⑦⑫② |⑨⑩⑪⑫|
①⑪⑥⑧ |⑬⑭⑮⑯|

⑮□□□
□⑮⑯□
□□□⑭
⑬□□□

82
□①□□ |①---|
□□□□ |----|
□□□□ |----|
□□□□ |----|
最終更新:2024年07月14日 18:56