アットウィキロゴ
1
□□□□ |①---|
□□□□ |②---|
□□□□ |③---|
①②③④ |④---|
2
□□□□ |①---|
□□□□ |②-③④|
□□□□ |⑤⑥⑦⑧|
①②□□ |⑨⑩⑪⑫|

□⑥⑤□
④⑧⑦③
□⑩⑨□
□⑫⑪□
3
□□③□ |①---|
②□□< |--②-|
>□∧① |----|
□□□□ |③---|

□□□□
3□□□
□□□2
□□□□
4
□③□□ |①---|
>□□② |--②-|
①□□< |----|
□□□□ |③---|

□□1□
□□□3
2□□□
□□□□
5
⑬⑭⑮⑯ |①②③④|
⑤⑥⑦⑧ |⑤⑥⑦⑧|
⑨⑩⑪⑫ |⑨⑩⑪⑫|
①②③④ |⑬⑭⑮⑯|
6
⑯⑮⑭⑬ |①②③④|
⑫⑪⑩⑨ |⑤⑥⑦⑧|
⑤⑥⑦⑧ |⑨⑩⑪⑫|
①②③④ |⑬⑭⑮⑯|
7
□□□□ |①---|
□□③□ |--②-|
②□□< |----|
>□∧① |③---|

□□□□
□□□□
3□□□
□□□2
8
□□□□ |①---|
□③□□ |--②-|
>□□② |----|
①□□< |③---|

□□□□
□□1□
□□□3
2□□□
9
①②③④ |①②③④|
⑨⑩⑪⑫ |⑤⑥⑦⑧|
⑤⑥⑦⑧ |⑨⑩⑪⑫|
⑬⑭⑮⑯ |⑬⑭⑮⑯|
10
①②③④ |①②③④|
⑤⑥⑦⑧ |⑤⑥⑦⑧|
⑫⑪⑩⑨ |⑨⑩⑪⑫|
⑯⑮⑭⑬ |⑬⑭⑮⑯|
11
④④①① |①-②-|
□②⑤□ |③-④-|
□⑥③□ |⑤-⑥-|
□□□□ |--⑦-|

□□⑦⑦
□□□⑦
□□□□
□□□□
12
③③□□ |--①-|
③①④□ |②-③-|
□□□□ |④-⑤-|
□⑤②□ |--⑥-|

□□□□
□⑥□□
□⑥□□
□□□□
13
④④①① |①-②-|
④□□① |③-④-|
④□□① |⑤-⑥-|
②⑥③⑤ |--⑦-|

□□⑦⑦
□□⑦⑦
□□□⑦
□□□□
14
③③⑥⑦ |--①-|
③③□□ |②-③-|
③①④⑤ |④-⑤-|
□□□② |⑥-⑦-|
15
□□□□ |①②③④|
⑤⑥⑦⑧ |⑤⑥⑦⑧|
□□□□
①②③④
16
□□□□ |①---|
□□□□ |②-③-|
①□□< |④---|
□□□□ |⑤---|

⑤③□⑤
□□□□
□□□②
□∧④□

□5□□
□□□□
3□□□
□□□□
17
□∨□□ |①---|
□□□② |②-③-|
□□□□ |④---|
□①□① |⑤---|

□□□□
③□□<
□□④□
□□□□

□□⑤□
□⑤□□
□□□□
□□□□

□□□□
5□□□
□□□□
□3□□
18
①□□□ |①---|
□□②□ |②---|
∧②□< |③---|
□□□① |④---|

□□□④
□③□□
□□③□
④∧<□

2□□□
□4□□
□3□□
□□□□
19
□□□□ |①---|
①□□< |②---|
□□□□ |③---|
□□□□ |④---|

□□□□
□□②③
□□④①
□□□□

□□□□
4□□□
□□□□
1□□□
20
□∨②□ |①---|
□□□□ |②-③-|
□①□□ |④---|
□□□① |⑤---|

③□□<
□□□□
□□□④
□□□□

□⑤□□
□□□⑤
□□□□
□□□□

5□□□
□□□□
□3□□
□□□□
21
□□□□ |①---|
□□□□ |②-③-|
□□□□ |④---|
①□□< |⑤---|

□□□②
⑤③⑤□
□□④□
□∧①□

□□□□
□5□□
□□□□
3□□□
22
□①□< |①---|
□□□② |②---|
②□<□ |③---|
□□①□ |④---|

□□④□
③∨□□
□□□③
∧④□□

□2□□
4□□□
3□□□
□□□□
23
□□□□ |①---|
□①□< |②---|
□□①□ |③---|
□□□□ |④-⑤-|

□□□□
□□③②
□⑤□④
□□④□

□□□□
□3□□
□□□□
□1□□
24
□□□∨ |①---|
①□□□ |②-③-|
□□□□ |④---|
□□□① |⑤---|

□④□⑤
>□③□
⑤□□□
□②□□

□□□□
□□5□
□□□□
□□□3
25
□□∨□ |①---|
□①□□ |②-③-|
□□□□ |④---|
□□①□ |⑤---|

④□⑤□
>□□③
□⑤□□
②□□□

□□□□
□□□5
□□□□
□□3□
26
□①□□ |①---|
>□②□ |②---|
②□□□ |③---|
□>□① |④---|

□□∨④
③□□□
□□③∧
□④□□

□□□□
□□3□
□□4□
□□□2
27
□□□□ |①---|
□①□□ |②---|
>□□① |③---|
□□□□ |④---|

□□□□
③□□□
②④□□
□□□□

□□□1
□□□□
□□□4
□□□□
28
④①□□ |①---|
>□①⑤ |②-③-|
②⑤□□ |④---|
□>□③ |⑤---|

□□□□
□□3□
□□□□
□□□5
29
□>□① |①---|
①□□□ |②-③-|
>□③□ |④---|
□②□□ |⑤---|

□□⑤□
□④□□
□□□□
⑤□□□

□□□3
□□□□
□□5□
□□□□
30
□①□□ |①---|
□□□② |②---|
②□□□ |③---|
>□①∧ |④---|

□□④□
③□□□
□>∧③
□④□□

□□□□
□□□3
□□□4
□□2□
31
>□□① |①---|
□□□□ |----|
□□□□ |----|
①□□< |②---|

□□12
□□□□
□□□□
2□□□
32
①□<□ |①---|
□①①□ |②-③-|
□□□□ |④-⑤-|
□□□□ |⑥-⑦-|

□□③□
□□□□
□②□□
□□□□

□□□⑦
□□□⑤
④□<□
□□⑥□

4□□□
□□□□
□□□□
□□□□
33
□□□□ |①---|
①□□< |②---|
□□□□ |③---|
□□□① |④---|

□③②□
□②□□
□□③□
□④④□

□□□□
4□□□
1□□□
□□□□
34
□□①□ |①---|
□①□□ |②-③-|
□>□① |④-⑤-|
□□□□ |⑥-⑦-|

⑦③□□
⑤>□④
□□②□
□⑥□□

□□□□
□□□□
□□□4
□□□□
35
□□□□ |①---|
□□□□ |----|
□□□□ |②-③-|
①>□① |④-⑤-|

□②②□
□□⑤□
□□□④
□□③□

□□□□
□□□1
□□□□
□□□2
36
□>□① |①--②|
⑥②□⑦ |③---|
□□⑥□ |-④⑤-|
①④⑤□ |⑥-⑦-|

□□□3
□□□□
□□□□
□□□□
37
□>□① |①--②|
□②□□ |③---|
□□□□ |-④⑤-|
①□□□ |⑥-⑦-|

⑦④□□
□□□⑦
⑥□□⑥
□□⑤□

□□□3
□□□□
□□□□
□□□□
38
□□①① |①--②|
□②⑥□ |③---|
□⑤□□ |④⑤⑥-|
①□④③ |⑦-⑧-|

⑦>□⑧
□□□□
□□□⑦
□□□□
39
⑦④⑦□ |①--②|
□②□⑥ |③---|
⑥□⑤□ |-④⑤-|
①□□□ |⑥-⑦-|

□□□3
□□□□
□□□□
□□□□
40
□□□□ |①--②|
□②□□ |③---|
□□□□ |-④⑤-|
①>□① |⑥-⑦-|

□□□⑦
⑥□⑥□
□□□⑤
□④□□

□□□□
□□□□
□□□□
□□□3
41
□□□□ |①--②|
□②□□ |③---|
□□□□ |-④⑤-|
①>□① |⑥-⑦-|

⑥□□□
□□□⑦
□□⑥□
□④⑤□

□□□□
□□□□
□□□□
□□□3
42
⑦⑥③③ |①--②|
□②⑦⑦ |③-④-|
④□⑤⑤ |⑤⑥--|
①□□① |⑦---|
43
□⑤□□ |①--②|
③□∨∨ |--③-|
□②□□ |④⑤--|
①□①① |⑥-⑦-|

⑦□□□
□□⑦□
⑥□□⑥
□□□□

□□□□
□□□□
□□□□
□□44
44
□>□① |①--②|
②⑤□⑥ |③---|
□□⑤□ |-④--|
④①□□ |⑤-⑥-|

□□□3
□□□□
□□□□
□□□□
45
□□①□ |①--②|
②□□□ |③---|
□□∧□ |-④--|
□①□□ |⑤-⑥-|

④⑥□□
□□⑥□
□⑤□□
□□⑤□

□□3□
□□□□
□□□□
□□□□
46
□□□① |①--②|
□□□□ |③-④-|
□□□∧ |-⑤--|
□①□□ |⑥-⑦-|

□⑥④□
②□□⑥
⑤□□③
□□⑦□

□□□3
□□□□
□□□□
□□□□
47
⑤⑦□① |①--②|
②□③□ |③---|
□⑥□④ |④⑤--|
□①⑥□ |⑥-⑦-|
48
□□□④ |①--②|
②⑥□∨ |③---|
□□□∧ |④⑤--|
⑤①□① |⑥---|

□□□6
□□□□
□□□□
□□□3
49
□⑤□□ |①--②|
②□∨□ |----|
□□□□ |③④--|
④①①⑤ |⑤---|

□□□□
□□□□
□□□□
□□3□
50
⑥⑦⑦□ |①--②|
②□□③ |③-④-|
□④①⑤ |⑤⑥--|
□①□□ |⑦---|
51
④⑥□① |①--②|
⑤③□□ |--③-|
②□□□ |-④--|
□①□∧ |⑤-⑥-|

□□□5
□□□□
□□□□
□□□□
52
⑯⑮⑭⑬ |①②③④|
⑫⑪⑩⑨ |⑤⑥⑦⑧|
⑤⑥⑦⑧ |⑨⑩⑪⑫|
①②③④ |⑬⑭⑮⑯|
53
□□□∨ |①-②-|
□③□□ |-③④-|
□□□□ |⑤--⑥|
②□□① |⑦-⑧⑨|

□□□□
>□④□
□□□□
□⑤□□

⑧⑨□□
⑥□□⑦
□□□□
□□□□

□□□□
□□7□
□□□□
□□□4
54
>□∨④ |①-②-|
□③□□ |-③④-|
□□①□ |⑤--⑥|
②□□□ |⑦-⑧⑨|

⑧⑨⑦□
⑥□□□
□□□□
□⑤□□

□□□7
□□□□
□□4□
□□□□
55
□□□□ |①-②-|
□□□① |③④--|
>□③□ |⑤--⑥|
②□□∧ |⑦-⑧⑨|

□□□□
⑧⑨⑤∨
⑥④□□
□⑤∧⑦

□□□□
□□73
□□5□
□□□□
56
⑤③□□ |①-②-|
□□□□ |-③--|
>□□① |④--⑤|
②④□□ |⑥-⑦⑧|

□□□□
□□□□
⑦⑧□□
□□□□

□□□□
□□□□
□□□6
□□□1
57
□□∨□ |①-②-|
□③□□ |-③④-|
□□□□ |⑤--⑥|
②□①□ |⑦-⑧⑨|

□□□□
>□□④
□□□□
□⑤□□

⑧⑨□□
⑥□⑦□
□□□□
□□□□

□□□□
□□□7
□□□□
□□4□
58
⑧⑨④⑦ |①-②-|
⑥③□□ |-③④-|
>□□① |⑤--⑥|
②⑤∧□ |⑦-⑧⑨|

□□7□
□□□□
□□□4
□□□□
59
□□□∨ |①-②-|
>□①□ |③④--|
□④□③ |⑤--⑥|
②□□□ |⑦-⑧⑨|

□□□□
□>∨⑤
⑥□□□
□⑤⑦□

□□□□
⑧⑨□□
□□□□
□□□□

□□□□
□□37
□□□5
□□□□
60
□③□□ |①-②-|
>□①□ |-③--|
□□□□ |④--⑤|
②④□□ |⑥-⑦⑧|

⑤□□□
⑦□□□
□⑦⑧⑥
□□□□

□□□□
□□4□
□□□□
□□1□
61
∨□□□ |①-②-|
□□③□ |-③④-|
□□□□ |⑤--⑥|
①□□② |⑦-⑧⑨|

□□□□
□④□<
□□□□
□□⑤□

□□⑨⑧
⑦□□⑥
□□□□
□□□□

□□□□
□7□□
□□□□
4□□□
62
④∨□< |①-②-|
□□③□ |-③④-|
□①□□ |⑤--⑥|
□□□② |⑦-⑧⑨|

□⑦⑨⑧
□□□⑥
□□□□
□□⑤□

7□□□
□□□□
□4□□
□□□□
63
□□□□ |①-②-|
□③□□ |③④--|
□□④□ |⑤--⑥|
①∧<② |⑦-⑧⑨|

□□□□
□□□□
□⑤□<
□□⑤□

⑦□□□
□□⑨⑧
□□□⑥
∧□□□

□□□□
□5□□
□7□□
3□□□
64
□□③⑤ |①-②-|
□□□□ |-③--|
①□□< |④--⑤|
□□④② |⑥-⑦⑧|

□□□□
□□□□
□□⑧⑦
□□□□

1□□□
□□□□
6□□□
□□□□
65
□□□□ |①-②-|
①□□< |-③④-|
□□□□ |⑤--⑥|
□□□② |⑦-⑧⑨|

□∨□□
□□③□
□□□□
□④□□

□□⑨⑧
□⑦□⑥
□□□□
□□⑤□

□□□□
4□□□
□□□□
□7□□
66
⑦①⑨⑧ |①-②-|
□□③⑥ |-③④-|
④□□< |⑤--⑥|
□∧⑤② |⑦-⑧⑨|

□4□□
□□□□
7□□□
□□□□
67
□□□□ |①-②-|
③∨<□ |③④--|
□□④□ |⑤--⑥|
□①□② |⑦-⑧⑨|

∨⑦□<
□□⑨⑧
⑤□□⑥
□□⑤□

□□□□
5□□□
7□□□
□3□□
68
①□③⑤ |①-②-|
□□⑧⑦ |-③--|
□□□□ |④--⑤|
∧□④② |⑥-⑦⑧|

61□□
□□□□
□□□□
□□□□
69
⑨⑩⑤⑧ |①-②-|
⑦④□□ |③④⑤-|
□□③① |⑥--⑦|
②⑥□⑥ |⑧-⑨⑩|
70
⑨⑩⑤⑧ |①-②-|
⑦④□□ |③④⑤-|
□□③⑥ |⑥--⑦|
②⑥①□ |⑧-⑨⑩|
70
□□⑦⑦ |①-②-|
⑧⑨③③ |③④--|
⑥④⑤⑤ |⑤--⑥|
②⑤①① |⑦-⑧⑨|
71
⑤③∨∨ |①-②-|
□□□□ |-③--|
⑦⑧□□ |④--⑤|
②④①① |⑥-⑦⑧|

□□□□
□□□□
□□□□
□□66
72
□□⑤① |①-②-|
□④□□ |③④⑤-|
□□③□ |⑥--⑦|
②□□□ |⑧-⑨⑩|

⑨⑩□⑧
⑦□□□
□□□⑥
□⑥□□
73
⑨⑩⑤□ |①-②-|
⑦④①⑧ |③④⑤-|
□□③□ |⑥--⑦|
②⑥□⑥ |⑧-⑨⑩|
74
□□③③ |①-②-|
⑧⑨⑦⑦ |③④--|
⑥④①① |⑤--⑥|
②⑤⑤⑤ |⑦-⑧⑨|
75
⑤③①① |①-②-|
⑥⑦□□ |-③--|
□□□□ |④--⑤|
②④∧∧ |--⑥⑦|

□□77
□□□□
□□□□
□□□□
最終更新:2024年07月14日 18:57