アットウィキロゴ
BPM:172
1
□□□□ |----|
□□□□ |----|
□□□□ |----|
□□□□ |----|
2
□□□□ |①---|
□□□□ |----|
□□□□ |----|
①□□< |----|
3
□□□□ |①---|
□□□□ |----|
□□① |----|
□□□□ |----|

□□□□
□□□□
□□□□
1□□□
4
□□□□ |①---|
①□□< |②---|
□□□□ |----|
□□□□ |③---|

□□□□
□③③□
□②②□
□□□□

□□□□
□□□□
□□□1
□□□□
5
□□① |①---|
□□□□ |②-③-|
④□□⑤ |--④-|
②□□③ |⑤---|

□□□□
1□□□
□□□□
□□□□
6
□④②□ |①-②-|
□③①□ |③-④-|
□①③□ |⑤---|
④□□② |⑥---|

⑥□□□
∧□>⑥
⑤<∨□
□□⑤□

□□□1
□□□□
6□□□
□□6□
7
□□∨③ |①---|
□①□□ |----|
④□①□ |②---|
□∧□□ |③-④-|

1□□□
□2□1
□□2□
□□□□
8
⑧④①⑧ |①-②-|
⑤③⑥② |③-④-|
⑥⑦⑦③ |⑤-⑥-|
④②⑤① |⑦-⑧-|
9
⑤∨□③ |①---|
②□□④ |----|
④□□② |②-③-|
□①□□ |④-⑤-|

□□□□
□□□□
□□□□
□2□□
10
□④②□ |①-②-|
□③①□ |③-④-|
□①③□ |⑤---|
④□□② |⑥---|

⑥□□□
∧□>⑥
⑤<∨□
□□⑤□

□□□□
□□□□
6□□□
□□6□
11
□□∨□ |①---|
□①□□ |----|
□□①□ |②---|
□∧□□ |③-④-|

□□□④
□□③□
□□□□
③□④□

1□□□
□2□1
□□2□
□□□□
12
□①□□ |①-②-|
②□□□ |③---|
③□□① |④-⑤-|
□②□③ |⑥---|

⑤□□⑤
□④□□
□□④⑥
⑥□□□
13
□①①□ |①---|
□□□□ |----|
□□□□ |----|
□∧∧□ |----|
14
□□□□ |①-②-|
□③③□ |--③-|
④⑤⑥□ |--④-|
①□□② |⑤-⑥-|

□55□
□□□□
□□□□
□□□□
15
∨□□∨ |①-②-|
①□□③ |③-④-|
□□□□ |⑤-⑥-|
①□□③ |⑦-⑧-|

⑤□□□
□⑥□□
⑦□□□
□⑧□□

□□□□
2□□4
□□□□
□□□□
16
⑥④□⑥ |①-②-|
③⑤⑤□ |③-④-|
□②①□ |⑤---|
□□□□ |⑥---|
17
□□□□ |①---|
□□⑤④ |②-③-|
□⑦⑥③ |④-⑤-|
□①①② |⑥-⑦-|
18
⑥④□⑥ |①-②-|
②③□□ |③-④-|
①□□□ |⑤---|
□⑤⑤□ |⑥---|
19
∨⑤⑤∨ |①-②-|
①⑥□③ |③-④-|
□⑦□□ |⑤---|
①□□③ |⑥-⑦-|

□□□□
2□□4
□□□□
□□□□
20
□⑦□□ |①-②-|
□□⑥□ |③-④-|
①□□⑤ |⑤-⑥-|
②③④□ |⑦---|
21
③□□□ |①---|
④□□② |②---|
①⑤②□ |③-④-|
□①⑥□ |⑤-⑥-|
22
□④⑤⑤ |①-②-|
□⑥③⑤ |③-④-|
□⑥⑥② |⑤---|
□□□① |⑥---|
23
∨□□∨ |①-②-|
①□□③ |③-④-|
⑤□⑧□ |⑤-⑥-|
①⑥⑦③ |⑦-⑧-|

□□□□
2□□4
□□□□
□□□□
24
□②③□ |①-②-|
□①□④ |③-④-|
⑥□□⑤ |⑤---|
⑥□□⑤ |⑥---|
25
②④③② |①---|
⑥⑤□□ |②---|
□①①□ |③-④-|
□□□□ |⑤-⑥-|
26
⑥□□⑥ |①-②-|
□□□□ |③-④-|
①⑤⑤□ |⑤---|
②③④□ |⑥---|
27
□□□□ |①-②-|
①<>③ |③-④-|
□∨∨□ |⑤-⑥-|
□①③□ |⑦-⑧-|

□⑤⑥□
□□⑦□
□⑧□□
□□□□

□□□□
2□□4
□□□□
□24□
28
□⑤⑤□ |①-②-|
□□□④ |③-④-|
□⑥⑥③ |⑤---|
□①②□ |⑥---|
29
∨□□∨ |①-②-|
①□□④ |③-④-|
□□□□ |⑤-⑥-|
①□□④ |--⑦-|

③□□⑥
□□□□
⑦□□□
□③⑥□

□□□□
2□□5
□□□□
□□□□
30
□□□□ |①-②-|
⑤①②⑤ |③-④-|
□⑤⑤③ |⑤---|
□□④□ |----|
31
□①①□ |①---|
∨□□□ |--②-|
□②□ |----|
①□□□ |③---|

③<□□
□□□□
□□□□
□□□□

□□□□
□□□□
□□3□
2□□□
32
□①①∨ |①---|
②□<□ |--②-|
□□∨① |----|
□□③□ |③---|

1□□□
3□□□
□□□2
□□□□
33
①□□□ |①---|
∧>②① |②---|
①③<∨ |③---|
□□□④ |④---|

2□□□
□□3□
□4□□
□□1□
34
□①①□ |①---|
□□□□ |----|
□∧∧□ |②---|
□□□□ |----|

□22□
□□□□
□□□□
□□□1
35
□□□① |①-②-|
□②④□ |③-④-|
□□□□ |⑤-⑥-|
①③□∧ |⑦-⑧-|

□□□□
□□□□
⑤⑥⑦⑧
□□□□

□□□7
□□□□
□□□□
□□□□
36
①□□□ |①-②-|
□□②□ |③-④-|
□□□□ |⑤-⑥-|
∧□□① |⑦-⑧-|

□□□□
③□□④
⑤⑥⑦⑧
□⑤③□

7□□□
□□□□
□□□□
□□□□
37
□□□① |①-②-|
□②□□ |③-④-|
□□□□ |⑤-⑥-|
①□□∧ |⑦-⑧-|

□⑧⑤□
□□④③
⑤⑦□⑦
□③⑥□

□□□7
□□□□
□□□□
□□□□
38
①□□□ |①-②-|
□□□□ |③-④-|
□□□□ |⑤-⑥-|
∧□□① |⑦-⑧-|

□□□□
③②□④
④□□□
②③□□

□⑦⑤⑧
□⑧□□
□⑤⑦□
□□⑥□

7□□□
□□□□
□□□□
□□□□
39
□□□□ |①---|
②□□□ |--②-|
□□□② |③---|
□□① |④---|

□□□□
□③□
□③□<
□□□□

□□□□
□□4□
□4□□
□□□2
40
①□<② |①---|
∨□□□ |②---|
□□□∧ |③---|
④>□③ |④---|

2□□3
□□□□
□□□□
□□□4
41
□①①□ |①---|
□□□□ |----|
□□□□ |----|
□∧∧□ |----|

□□□□
□□□□
□□□□
1□□□
42
□□□□ |①---|
□∨∨□ |----|
□□□□ |----|
□①①□ |----|
43
□11□ |①---|
□□□□ |----|
□□□□ |----|
□11□ |----|
44
□□□□ |----|
□□□□ |----|
□□②□ |----|
□①□□ |①-②-|
45
③□□① |①-②-|
□①③□ |③-④-|
∧□□∧ |⑤---|
④□□② |⑥---|

□⑥□□
□∧>⑥
⑤<∨□
□□⑤□

4□□2
□□□□
6□□□
□□6□
46
□□∨□ |①---|
□①□□ |----|
□□①□ |②---|
□∧□□ |③-④-|

□□③□
□□□□
④□□□
□□□□

□1□□
□2□1
□□2□
□□□□
47
□□□① |①-②-|
①□□□ |③-④-|
□□□∧ |⑤-⑥-|
□②□③ |⑦-⑧-|

④□□□
□□□④
∧□□□
⑥□⑤□

□⑧⑧□
⑦□□□
□□⑦□
□□□□

6□□3
□□□□
□□□□
□□□□
48
□□□∨ |①---|
□∨□□ |----|
□□□① |②-③-|
□①□□ |④-⑤-|

□□□□
□□□⑤
□③④□
②□□□

□□□□
□□□□
□□□2
□2□□
49
③□□① |①-②-|
□①③□ |③-④-|
□□□□ |⑤---|
∧□□∧ |⑥---|

□□□□
□□□□
□□□□
④□□②

□⑥□□
□∧>⑥
⑤<∨□
□□⑤□

4□□2
□□□□
6□□□
□□6□
50
□□∨□ |①---|
□①□□ |----|
□□①□ |②---|
□∧□□ |③-④-|

∨□④□
□□□□
□□□③
③□□□

□1□□
□2□1
□□2□
□□□□
51
②□□∨ |①-②-|
□□□□ |③---|
□①□□ |④-⑤-|
□③③④ |⑥---|

□□□⑤
□④□□
□⑥⑥□
□□□□

□□□□
□□□□
□□□□
3□□6
52
□①①□ |①---|
□□□□ |----|
□□□□ |----|
□∧∧□ |②---|

□22□
□□□□
□□□□
□□□□
53
□⑤□□ |①---|
□②□④ |②---|
①②③④ |③---|
①□③□ |④-⑤-|
54
③□□① |①-②-|
□□②□ |③-④-|
∧①③∧ |⑤---|
□□□② |⑥---|

□⑥□□
④∧>⑥
⑤<∨□
□④⑤□

4□□2
□□□□
6□□□
□□6□
55
□□∨□ |①---|
□①□□ |----|
□□①□ |②---|
□∧□□ |③-④-|

□1□□
□2□1
□□2□
□□□□

□③③□
□□□□
□□□□
④□□④
56
□>□① |①-②-|
①□③□ |③-④-|
□②□② |⑤-⑥-|
□□③□ |⑦-⑧-|

④□<□
□⑥□④
⑤□⑤□
□⑥□□

□⑦⑧□
□□□□
□□□□
⑦□□□

6□□3
□□□□
□□□□
□□□□
57
□□□□ |①---|
□□□□ |----|
□①□< |②---|
□①□ |③---|

□□③□
②□□③
③□□②
□③□□

□□□□
□□□□
□2□□
□□2□
58
③□□① |①-②-|
□①③□ |③-④-|
□□□□ |⑤---|
∧□□∧ |⑥---|

□□□□
□□□□
□④②□
④□□②

□⑥□□
□∧>⑥
⑤<∨□
□□⑤□

4□□2
□□□□
6□□□
□□6□
59
□□∨□ |①---|
□①□□ |----|
□□①□ |②---|
□∧□□ |③-④-|

□1□□
□2□1
□□2□
□□□□

∨④□□
□□□□
□④□③
③□□□
60
□□□□ |①-②-|
②□①② |③---|
①□□□ |④-⑤-|
□③③□ |⑥---|

□□□∨
□④□□
□□□□
□□□④

□□□⑤
□□□□
⑥⑥⑤□
□□□□

□□□□
□□□□
□□□□
3□□6
61
□①①□ |①---|
□□□□ |----|
□∧∧□ |----|
□□□□ |----|
62
□□□□ |①-②-|
□③③□ |--③-|
⑤⑥⑦□ |④-⑤-|
①□□② |⑥-⑦-|

□44□
□□□□
□□□□
□□□□
63
∨□□∨ |①---|
□□□□ |②---|
□□□□ |③---|
①□□③ |④---|

②②④④
□□□□
□□□□
□□□□

□□□□
□□□□
□□□□
2□□4
64
①□□∨ |①---|
□□□□ |②---|
□□□□ |③---|
∧□□③ |④---|

□④□④
□□□□
□□□□
②□②□

2□□□
□□□□
□□□□
□□□4
65
∨□□∨ |①---|
□□□□ |②---|
□□□□ |③---|
①□□③ |④---|

②□□④
□④②□
□□□□
□□□□

□□□□
□□□□
□□□□
2□□4
66
□①①□ |①---|
⑦□□② |②-③-|
⑥∧∧③ |④-⑤-|
□⑤④□ |⑥-⑦-|

□44□
□□□□
□□□□
□□□□
67
∨□□∨ |①---|
□□□□ |②---|
□□④□ |③-④-|
①□□③ |⑤---|

②⑤②⑤
□□□□
□□□□
□□□□

□□□□
□□□□
□□□□
2□□5
68
①□□∨ |①---|
□□□□ |②---|
□□□□ |③---|
∧□□③ |④---|

□□□④
□□④□
□②□□
②□□□

2□□□
□□□□
□□□□
□□□4
69
①□□∨ |①---|
□□□□ |②---|
□□□□ |③---|
∧□□③ |④---|

□□④□
④□□□
□□□②
□②□□

2□□□
□□□□
□□□□
□□□4
70
□□□□ |①-②-|
□①①□ |③---|
□②②□ |④---|
□③③□ |⑤---|

□□□□
⑤>□④
□>□④
□□□□

□□□□
□□□5
□□□5
□□□□
71
∨□□∨ |①---|
□□□□ |②---|
□□□□ |③---|
①□□③ |④---|

②□□④
□④②□
②□□④
□□□□

□□□□
□□□□
□□□□
2□□4
72
□①∨□ |①---|
□□□□ |②---|
□□□□ |③---|
□∧③□ |④---|

□□④□
□④□④
②□②□
□②□□

□2□□
□□□□
□□□□
□□4□
73
①□□∨ |①---|
□□□□ |②---|
□□□□ |③---|
∧□□③ |④---|

□□④□
④□□④
②□□②
□②□□

2□□□
□□□□
□□□□
□□□4
74
□□□□ |①-②-|
□①①□ |③---|
□②②□ |④---|
□③③□ |⑤---|

□□□□
④><④
④><④
□□□□

□□□□
5□□5
5□□5
□□□□
75
①□④□ |①-②-|
□③②□ |③-④-|
□②③□ |⑤-⑥-|
④□①□ |⑦-⑧-|

□□□⑧
⑦∨□⑥
□□□⑦
∧⑤□⑤

□□□□
□□□□
□□□□
□7□□
76
□□□□ |①-②-|
□□□□ |③-④-|
①□<□ |⑤-⑥-|
□□□□ |⑦-⑧-|

□⑦⑧⑥
□□⑦④
□□②⑤
□⑧①③

□□□□
1□□□
5□□□
□□□□
77
④⑧⑧⑦ |①-②-|
①⑤⑥⑤ |③-④-|
⑥②④③ |⑤-⑥-|
③⑦②① |⑦-⑧-|
78
□∨⑦⑧ |①-②-|
⑧□⑤⑥ |③-④-|
⑦①③④ |⑤-⑥-|
⑥□①② |⑦-⑧-|

□□□□
□□□□
□5□□
□□□□
79
③①□□ |①-②-|
□□□□ |③-④-|
□④②④ |⑤-⑥-|
□②①③ |⑦-⑧-|

□□⑥⑧
∨⑦⑤⑦
□□□□
⑤∧□□

□□□□
□□□□
□□□□
7□□□
80
□□□□ |①-②-|
□□□□ |③-④-|
①□□< |⑤-⑥-|
□□□□ |⑦-⑧-|

□⑧⑧⑥
⑦□⑤⑦
□□②④
□□③①

□□□□
□1□□
5□□□
□□□□
81
①□□□ |①-②-|
∨②□□ |③-④-|
□□①③ |⑤-⑥-|
③□④② |⑦-⑧-|

∨⑥⑦⑤
□□⑥⑧
⑦⑤□□
□□□□

□□□□
□□□□
□□□□
5□□□
82
①□□< |①-②-|
□□□□ |③-④-|
□□③① |⑤-⑥-|
□□④② |⑦-⑧-|

□□⑦⑤
□□⑧⑥
□□□□
□□□□

7□□□
□□□□
1□□□
□□□□
83
⑦⑦⑦⑦ |①-②-|
④⑥⑥⑤ |③-④-|
□□④③ |⑤-⑥-|
②①②① |⑦---|
最終更新:2025年01月03日 18:48