アットウィキロゴ
1
□□□□ |----|
□□□□ |----|
□□□□ |----|
①□□□ |①---|

2
□②□① |①---|
④□□| |--②-|
⑤□□| |③-④⑤|
⑥□③∧ |⑥-⑦-|

□□□⑦
□□□□
□□□⑦
□□□□

3
□□□□ |①---|
□①①□ |--②-|
□||□ |③-④-|
□∧∧□ |⑤-⑥-|

□③③□
□②②⑥
⑤□□□
□□④□

4
①□□② |①---|
|□□⑦ |--②-|
|⑥⑤④ |③---④⑤⑥-|
∧□③□ |⑦-⑧-|

⑧□□□
□□□□
□□□□
□□□⑧

5
□□□□ |①---|
□①①□ |--②-|
□||□ |③---|
□∧∧□ |④-⑤-|

□③③□
⑤②②□
□□□□
□□④□

6
□⑤⑦① |①---|
□□□| |----②③④-|
②③④| |⑤-⑥-|
⑥□□∧ |⑦-⑧-|

□□□□
□□□□
□□□□
□□□⑧

7
②□□⑤ |①-②③|
③⑥⑥□ |④-⑤-|
④□□⑤ |⑥---|
□①①□ |⑦-⑧-|

□□□□
□□□□
□⑧□□
□□⑦□

8
□④①⑤ |①---|
④⑥⑤① |②-③-|
□□③□ |④-⑤-|
②⑥⑦⑦ |⑥-⑦-|

9
①――< |①---|
□□□□ |②---|
①――< |③-④-|
□□□□ |⑤---|

⑤③③⑤
□□□②
⑤□②⑤
□④□□

10
□④□□ |①--②|
④①②□ |③-④-|
□②□□ |⑤--⑥|
□⑤①③ |⑦-⑧-|

□□⑧□
□⑥□⑧
□□⑥□
⑦□□□

11
①④⑧⑤ |①--②|
④⑥②⑧ |③-④-|
⑦②⑥③ |⑤--⑥|
⑤⑤①① |⑦-⑧-|

12
③□□⑦ |①--②|
⑤⑥②□ |③-④-|
⑧②⑥④ |⑤--⑥|
⑤⑧④① |⑦-⑧-|

13
①①⑤⑤ |①--②|
③⑥②⑦ |③-④-|
⑧②⑥④ |⑤--⑥|
□⑧④□ |⑦-⑧-|

14
③③□⑦ |①--②|
□□②⑥ |③-④-|
□⑤□⑤ |⑤⑥⑦-|
①□④① |⑧-⑨⑩|

□□□□
□□⑩□
□□⑨□
⑧□□□

15
□□①□ |①--②|
①――< |③-④-|
□□□□ |⑤-⑥⑦|
□③□② |⑧-⑨-|

>――⑤
⑤⑦□④
□⑥□□
□□□□

□⑧□□
□□□□
□□□□
⑨□□□

16
④⑦④① |①-②③|
③⑥□□ |④---|
②⑤⑤① |⑤⑥⑦-|
□□□□ |⑧-⑨-|

□□□⑧
□□□□
□□□⑧
⑨□□□

17
⑤□④□ |①--②|
□③③⑥ |--③-|
⑤②②④ |④-⑤-|
□①①⑥ |⑥-⑦-|

□□□□
⑦□□□
□⑦□□
□□□□

18
□□□① |①---|
□□□| |②---|
□□①| |③-④-|
②□□∧ |⑤-⑥-|

⑤③∨③
□□|⑤
□④|□
□□⑥□

19
③④□□ |①---|
□⑤□□ |②---|
②⑥□□ |③--④⑤⑥|
①⑦③⑧ |⑦⑧⑨-|

□□□□
⑨――<
□□□□
□□□□

20
④□②□ |①---|
③□□□ |②---|
□⑤①③ |③-④-|
□□⑤□ |⑤-⑥-|

□⑥□□
□|□□
□|□□
□∧□□

21
□②>② |①---|
②□□□ |②---|
□□□□ |③---|
□□□① |④---|

□□□③
□③∨□
□□③□
□□□□

□□□□
□□□□
□□④④
□④<□

22
□□①□ |①---|
①――< |②---|
□②□□ |③---|
□①②□ |④---|

□□□③
□③□□
④□□□
□□□④

23
□①∨□ |①---|
①□|□ |②-③-|
□□①□ |④-⑤-|
□□□□ |⑥⑦⑧-|

④>―④
⑥□□□
⑦⑤②□
□③□□

□□□□
□□□□
□□□□
⑧――<

24
□□③① |①---|
④□□③ |②---|
□□①④ |③---|
④②□② |④---|

25
⑦④⑤⑦ |①-②-|
⑤②②④ |③-④-|
③①③□ |⑤-⑥-|
□⑥①⑥ |⑦-⑧-|

□□□□
□⑧□□
□□□⑧
□□□□

26
⑫□⑥⑬ |①②③④|
⑪□⑤⑭ |⑤⑥⑦⑧|
④⑧②⑩ |⑨⑩⑪⑫|
③⑦①⑨ |⑬⑭⑮⑯|

□□□□
□□□□
⑮□□□
⑯□□□

27
⑬④⑤⑫ |①②③④|
⑭③⑥⑪ |⑤⑥⑦⑧|
⑮⑦②⑩ |⑨⑩⑪⑫|
⑯⑧①⑨ |⑬⑭⑮⑯|

28
⑫④⑩⑬ |①②③④|
⑪③⑨⑭ |⑤⑥⑦⑧|
⑮⑧②⑥ |⑨⑩⑪⑫|
⑯⑦①⑤ |⑬⑭⑮⑯|

29
⑬④⑤⑨ |①②③④|
⑭③⑥⑩ |⑤⑥⑦⑧|
⑮⑦②⑪ |⑨⑩⑪⑫|
⑯⑧①⑫ |⑬⑭⑮⑯|

30
⑫④⑬⑥ |①②③④|
⑪③⑭⑤ |⑤⑥⑦⑧|
⑮⑧②⑩ |⑨⑩⑪⑫|
⑯⑦①⑨ |⑬⑭⑮⑯|

31
⑫④⑬⑤ |①②③④|
⑪③⑭⑥ |⑤⑥⑦⑧|
□⑦②⑩ |⑨⑩⑪⑫|
□⑧①⑨ |⑬⑭⑮⑯|

□□□□
□□□□
□□⑮□
□□⑯□

32
⑬⑥⑫④ |①②③④|
⑭⑤⑪③ |⑤⑥⑦⑧|
②⑩□⑧ |⑨⑩⑪⑫|
①⑨□⑦ |⑬⑭⑮⑯|

□□□□
□□□□
⑮□□□
⑯□□□

33
⑬⑤⑨① |①②③④|
⑭⑥⑩② |⑤⑥⑦⑧|
⑮⑦⑪③ |⑨⑩⑪⑫|
⑯⑧⑫④ |⑬⑭⑮⑯|

34
□②□① |①---|
④□□| |--②-|
⑤□③| |③-④⑤|
⑥□③∧ |⑥-⑦-|

□□□⑦
□□□□
□□□⑦
□□□□

35
□□□□ |①---|
□①①□ |②-③-|
□||□ |④-⑤-|
□∧∧② |⑥-⑦-|

□④④□
□③③⑦
⑥□□□
□□⑤□

36
①□□② |①---|
|□□□ |--②-|
|①□□ |③---④⑤⑥-|
∧□□□ |⑦-⑧-|

⑧□□□
□□□⑦
③⑥⑤④
□□③⑧

37
□□□□ |①---|
□①①□ |②-③-|
□||□ |④---|
②∧∧□ |⑤-⑥-|

□④④□
⑥③③□
□□□□
□□⑤□

38
□⑤⑦① |①---|
□□⑤| |----②③④-|
②③④| |⑤-⑥-|
⑥□□∧ |⑦-⑧-|

□□□□
□□□□
□□□①
□□□⑧

39
②□□⑤ |①-②③|
③⑥⑥□ |④-⑤-|
④□⑤⑤ |⑥---|
□①①□ |⑦-⑧-|

□□□□
□□□□
□⑧□□
□□⑦□

40
⑥⑥①⑤ |①---|
□④⑦① |②-③-|
④□③⑤ |④-⑤-|
②□□⑦ |⑥-⑦-|

41
□∨∨□ |①---|
□||② |②---|
□||□ |③--④⑤⑥|
□①①□ |⑦---|

④□③□
⑤□□□
⑥□⑦□
⑦③③□

42
□④□① |①-②-|
⑥②□| |③-④-|
⑦□⑤| |⑤-⑥⑦|
⑧③⑤∧ |⑧-⑨-|

□□□⑨
□□□□
□□□⑨
□□□□

43
□□□□ |①-②-|
□①①② |③-④-|
□||□ |⑤-⑥-|
□∧∧③ |⑦-⑧-|

□⑤⑤□
□④④⑧
⑦□④□
□□⑥□

44
①□□④ |①-②-|
|□②□ |③-④-|
|①□□ |⑤---⑥⑦⑧-|
∧③□□ |⑨-⑩-|

⑩□□□
□□□⑨
⑤⑧⑦⑥
□□⑤⑩

45
□□□□ |①-②-|
②①①□ |③-④-|
□||□ |⑤-⑥-|
③∧∧□ |⑦-⑧-|

□⑤⑤□
⑧④④□
⑥④□□
□□⑦□

46
②⑦⑨① |①-②-|
□□⑦| |③---④⑤⑥-|
④⑤⑥| |⑦-⑧-|
⑧③□∧ |⑨-⑩-|

□□□□
□□□□
□□□①
□□□⑩

47
②⑦□⑤ |①-②③|
③⑥⑥□ |④-⑤-|
④□□⑤ |⑥-⑦-|
□①①□ |⑧-⑨-|

□□□□
□□□□
□⑨□□
□□⑧□

48
□⑤①⑥ |①-②-|
⑤⑦⑥① |③-④-|
□□④□ |⑤-⑥-|
③⑦□② |⑦-⑧-|

□□□□
□□□□
□□□□
□□⑧⑧

49
①――< |①---|
□□□□ |②---|
①――< |③-④-|
□□□□ |⑤⑥⑦⑧|

⑤③③□
⑤⑥⑦⑧
⑤□□②
□④□□

50
□□□□ |①---|
□□□□ |②---|
□□□□ |③-④-|
①―<□ |⑤-⑥-|

□□②②
③□||
□□||
②□∧∧

□□□□
□□□□
□□□⑥
□⑤④□

51
①①□□ |①---|
||□□ |--②-|
∧∧□□ |③---|
□□□□ |--④⑤|

③③③③
④□□□
⑤②③□
□□□□

52
□③□□ |①---|
>――② |②---|
□□□□ |③-④-|
①――< |⑤-⑥-|

□□□□
□□④⑥
□⑤□□
⑥□⑥□

53
□⑤>④ |①-②-|
□⑥③□ |--③-|
②――< |④--⑤⑥⑦|
□①□□ |⑧---|

□□□⑧
□□□□
⑧⑦□□
□⑧□□

54
□□□□ |①---|
□□□□ |②---|
□□□□ |③-④-|
①―<□ |⑤-⑥-|

□□②□
>―+②
□□|□
②□∧□

⑥□□□
□③□□
□□④□
□⑤□□

55
□①□□ |①---|
①+<□ |--②-|
□∧□□ |③---|
□□□□ |----|

□③③□
③②③③
□□□□
□□□□

56
③⑤⑤② |----|
①⑥⑥□ |①-②-|
□⑦⑦④ |③-④-|
①⑧⑧□ |⑤⑥⑦⑧--|

57
□□□□ |①-②-|
∨□□□ |③-④-|
|□□□ |⑤--⑥⑦⑧|
①□□□ |⑨---|

□>―③
□□□□
□□□□
②□□□

□□□④
□□□□
□□□□
□□□□

□□□∨
□□□|
□□□⑤
□□□□

□□□□
⑨⑧⑦□
⑨⑧⑦⑥
□□□□

58
□□□□ |①---|
□□□□ |②---|
□□□□ |③-④-|
①―<□ |⑤-⑥-|

□□②②
③□||
□□||
②□∧∧

□□□□
□□□□
□□□⑥
□⑤④□

59
①①□□ |①---|
||□□ |--②-|
∧∧□□ |③---|
□□□□ |--④⑤|

③③③③
④□□□
⑤②③□
□□□□

60
□③□□ |①---|
>――② |②---|
□□□□ |③-④-|
①――< |⑤-⑥-|

□□□□
□□④⑥
□⑤□□
⑥□⑥□

61
□⑤>④ |①-②-|
□⑥③□ |--③-|
②――< |④--⑤⑥⑦|
□①□□ |⑧---|

□□□⑧
□□□□
⑧⑦□□
□⑧□□

62
□□□□ |①---|
□□□□ |②---|
□□□□ |③-④-|
①―<□ |⑤-⑥-|

□□②□
>―+②
□□|□
②□∧□

⑥□□□
□③□□
□□④□
□⑤□□

63
□①□□ |①---|
①+<□ |--②-|
□∧□□ |③---|
□□□□ |----|

□③③□
③②③③
□□□□
□□□□

64
⑧⑦⑥⑤ |----|
④②□③ |①-②-|
②□□① |③-④-|
□④①③ |⑤⑥⑦⑧--|

65
□□□□ |①②③④|
□□□□ |⑤⑥⑦⑧|
□□□□ |⑨⑩⑪⑫|
①――< |⑬⑭⑮⑯|

□□⑩⑧
⑨③⑪④
□⑦⑫⑤
□⑬②⑥

□⑯□□
□□□□
⑮□□□
□□⑭□

66
□□⑥⑤ |①②③④|
④①⑦⑫ |⑤⑥⑦⑧|
⑪②⑧⑬ |⑨⑩⑪⑫|
⑬⑨⑩③ |⑬⑭⑮⑯|

□□□⑯
⑮□□□
□□□□
□□□⑭

67
①②⑧□ |①②③④|
□③⑨⑦ |⑤⑥⑦⑧|
⑥④⑩⑫ |⑨⑩⑪⑫|
⑪□⑤□ |⑬⑭⑮⑯|

⑬⑭□□
□⑮□□
□⑯□□
□□□□

68
>――① |①②③④|
⑧□□③ |⑤⑥⑦⑧|
②□□⑦ |⑨⑩⑪⑫|
□④⑤⑥ |⑬⑭⑮⑯|

⑭⑩⑨□
□⑪□⑮
□⑫⑬□
⑯□□□

69
□⑩⑤□ |①②③④|
④□⑨⑪ |⑤⑥⑦⑧|
⑥⑦⑧③ |⑨⑩⑪⑫|
□①②□ |⑬⑭⑮⑯|

□□□□
□⑯□□
□□□⑮
□⑫⑬⑭

70
②⑥①① |①②③④|
③□□⑦ |⑤⑥⑦⑧|
④⑫⑤⑪ |⑨⑩⑪⑫|
⑧⑨⑩□ |⑬⑭⑮⑯|

□□□⑬
⑭⑮⑯□
□□□□
□□□□

71
①――< |①②③④|
□□□□ |⑤⑥⑦⑧|
□□□□ |⑨⑩⑪⑫|
□□□□ |⑬⑭⑮⑯|

□③②⑩
⑨□⑪④
⑬⑦⑤⑫
□□⑧⑥

□⑮⑭□
□□□⑯
□□□□
□□□□

72
⑨⑪⑩⑥ |①②③④|
⑤□⑦⑫ |⑤⑥⑦⑧|
⑨③①⑧ |⑨⑩⑪⑫|
□□④② |⑬⑭⑮⑯|

□□□□
□□□□
□⑮⑬□
□□⑯⑭

73
□□⑥② |①②③④|
⑦□③⑧ |⑤⑥⑦⑧|
⑤□□④ |⑨⑩⑪⑫|
①――< |⑬⑭⑮⑯|

□□□⑭
□⑬⑮□
□□⑨⑯
⑨⑪⑫⑩

74
①――< |①②③④|
□□□□ |⑤⑥⑦⑧|
□□□□ |⑨⑩⑪⑫|
□□□□ |⑬⑭⑮⑯|

□⑧②⑨
③⑫⑪⑩
⑥⑤④□
⑬⑭⑮⑦

□□□□
⑯□□□
□□□□
□□□□

75
①□①□ |①---|
□□□□ |----|
□□□□ |----|
□□□□ |----|
最終更新:2024年07月14日 18:59