アットウィキロゴ
1
□②□④ |①---|
□□□□ |②-③-|
□③□□ |--④-|
①⑤①⑤ |--⑤-|
2
□③□□ |--①-|
□②□② |--②-|
□□①□ |----|
④□④□ |③-④-|
3
②□②□ |--①-|
□③□③ |--②-|
④①④□ |--③-|
□□□□ |--④-|
4
⑦③②① |--①②|
⑤⑥□⑥ |③-④-|
□□□④ |⑤-⑥-|
⑤⑧⑧□ |⑦-⑧-|
5
□□□⑥ |--①②|
⑦□⑤□ |③-④-|
①②③□ |⑤-⑥-|
④⑧⑧□ |⑦-⑧-|
6
⑤□□□ |--①②|
□④⑥□ |③---|
□③②① |④-⑤-|
⑦□□⑦ |⑥-⑦-|
7
④□□⑤ |----|
□⑥⑥□ |--①②|
①②③□ |③-④-|
□□□□ |⑤-⑥-|
8
□③□③ |--①-|
□□□□ |----|
□③□③ |--②-|
②①①□ |--③-|
9
⑥□⑥□ |--①-|
□□②□ |②-③-|
⑥□□⑤ |--④-|
④①□③ |⑤-⑥-|
10
□②④② |--①-|
④□□□ |--②-|
□②□⑤ |--③-|
□⑤①③ |④-⑤-|
11
②□□② |--①-|
⑥⑤④③ |--②-|
□②②□ |③-④-|
①□□□ |⑤-⑥-|
12
□⑤②⑤ |--①-|
□□□□ |--②-|
①□④① |--③-|
□③□③ |④-⑤-|
13
⑥□⑥□ |--①-|
②⑤□③ |②---|
□①□① |③-④-|
④□④□ |⑤-⑥-|
14
□③□③ |--①-|
□□④□ |--②-|
①⑤①⑤ |--③-|
□②□② |④-⑤-|
15
①⑥①⑥ |--①-|
②□⑤③ |②---|
□□□□ |③-④-|
④□④□ |⑤-⑥-|
16
③⑤③⑤ |--①-|
①②□□ |②-③-|
①②□□ |----|
□④□④ |④-⑤-|
17
④□□□ |--①-|
□④□③ |②-③-|
⑤②③⑤ |--④-|
□□①□ |--⑤-|
18
□③③④ |--①-|
①⑤④□ |②-③-|
□⑥⑤□ |--④-|
⑥□②□ |⑤-⑥-|
19
②⑤⑦□ |--①②|
□□□③ |③-④-|
⑥⑧⑥⑧ |⑤-⑥-|
□④①④ |⑦-⑧-|
20
□⑤⑥⑥ |①-②-|
⑤②⑥③ |③-④-|
□□□□ |--⑤-|
①□④□ |--⑥-|
21
④□□□ |--①-|
□⑤□③ |--②-|
⑥①②□ |③-④-|
①①□□ |⑤-⑥-|
22
□①①⑤ |--①-|
⑦□⑥□ |②③④-|
⑦④③② |--⑤-|
⑦□□□ |⑥-⑦-|
23
□⑥⑤□ |--①-|
□④□② |②-③-|
□□⑦□ |④-⑤-|
□③□① |⑥-⑦-|
24
⑥□□⑤ |--①-|
④□②② |②-③-|
①①□⑦ |④-⑤-|
③□□⑦ |⑥-⑦-|
25
□□□□ |--①-|
□□④② |②-③-|
①⑤⑥□ |④-⑤-|
□⑦③□ |⑥-⑦-|
26
①①②② |--①-|
⑦□□④ |②-③-|
⑤□□③ |④⑤⑥-|
⑧□□⑥ |⑦-⑧-|
27
①⑦⑥② |--①-|
⑤⑤□□ |②-③-|
□□④□ |④-⑤-|
□③□⑦ |⑥-⑦-|
28
③⑤□□ |--①-|
④□②① |--②-|
⑤①□□ |--③-|
②□③⑤ |④-⑤-|
29
③□□① |--①-|
④□□② |--②-|
⑤②②① |--③-|
②⑤⑤⑤ |④-⑤-|
30
④④□① |--①-|
③□③② |--②-|
□②②① |--③-|
②□⑤⑤ |④-⑤-|
31
⑤⑦⑥⑥ |--①-|
⑦□□④ |②-③-|
①⑤④② |④-⑤-|
③③□□ |⑥-⑦-|
32
⑤□④□ |--①-|
□□⑤② |--②-|
②⑤□□ |--③-|
□③①⑤ |④-⑤-|
33
⑥①⑤③ |--①-|
□②⑥⑤ |--②-|
④⑥③□ |③-④-|
②④①⑥ |⑤-⑥-|
34
□①□② |--①-|
②⑤□□ |--②-|
□□④② |--③-|
②③①□ |④-⑤-|
35
□⑥□⑥ |--①-|
□□⑤③ |②-③-|
②④□□ |--④-|
□□□① |⑤-⑥-|
36
□□□□ |--①-|
①④④□ |--②-|
□□□② |--③-|
③□③□ |--④-|
37
⑤□□□ |--①-|
②⑥⑥③ |②-③-|
⑥□□⑥ |--④-|
④□□① |⑤-⑥-|
38
□③②① |--①②|
⑤□□⑥ |③-④-|
□□④□ |⑤-⑥-|
⑤⑦⑦⑥ |--⑦-|
39
③□⑥□ |--①②|
□②□□ |③-④-|
①□⑤⑦ |⑤-⑥-|
④□⑧□ |⑦-⑧-|
40
③□□⑦ |--①②|
□②⑧□ |③-④-|
①④④⑨ |--⑤⑥|
⑥□□⑤ |⑦⑧⑨-|
41
⑤⑦⑤□ |①-②-|
②④⑦④ |③④⑤-|
③⑦③□ |--⑥-|
⑥①⑦⑥ |--⑦-|
42
⑤□□① |--①-|
②③□③ |②-③-|
③□③④ |--④-|
⑥⑥⑥⑥ |⑤-⑥-|
43
⑧③④⑤ |--①-|
⑥□②⑧ |②-③④|
□①□□ |⑤-⑥-|
□□⑧⑦ |⑦-⑧-|
44
④③□② |--①-|
□①③④ |--②-|
②④□① |--③-|
①②④③ |--④-|
45
⑨⑤⑨③ |--①-|
①□⑥□ |②-③-|
□⑦□④ |④-⑤⑥|
②□⑧□ |⑦⑧⑨-|
46
□⑥□② |--①-|
□□□⑥ |--②-|
⑥③④⑤ |--③④|
□①⑥□ |⑤-⑥-|
47
⑦□⑦⑤ |--①-|
②③②□ |②--③|
□□④□ |④-⑤-|
①⑥□⑥ |⑥-⑦-|
48
□③□⑤ |--①-|
③□④② |②-③-|
①④□③ |--④-|
⑤□③□ |--⑤-|
49
②□⑦□ |--①-|
⑦①⑤② |②--③|
②③①⑥ |④-⑤-|
□⑥④② |⑥-⑦-|
50
③④□① |--①-|
⑦③⑤⑦ |②-③-|
□□③□ |④-⑤-|
②⑥□③ |⑥-⑦-|
51
②□③② |--①-|
⑥⑤□⑥ |②-③-|
④①□④ |④-⑤-|
⑦□□⑦ |⑥-⑦-|
52
⑤□②② |--①-|
⑤③①□ |--②-|
②①③□ |--③-|
④①⑤□ |④-⑤-|
53
⑤①⑤□ |--①-|
□□①④ |②-③-|
②⑤□⑤ |--④-|
④③□③ |--⑤-|
54
④①④① |--①-|
②③②③ |--②-|
①④①④ |--③-|
③②③② |--④-|
55
□②□② |--①-|
④⑤⑤□ |②-③-|
①□①□ |--④-|
□③□③ |--⑤-|
56
②□②□ |--①-|
□⑤⑤④ |②-③-|
□①□① |--④-|
③□③□ |--⑤-|
57
⑤③⑤③ |--①-|
□⑤□⑤ |②-③-|
②□②□ |--④-|
④①□① |--⑤-|
58
⑤②□□ |--①-|
②④①⑤ |--②-|
⑤①③② |--③-|
□□②⑤ |④-⑤-|
59
⑥□②② |--①-|
③□□⑥ |②-③-|
⑦⑤⑤④ |④-⑤-|
①①□⑦ |⑥-⑦-|
60
⑧①②③ |--①②|
⑤□⑤⑧ |③-④-|
⑦□□□ |⑤-⑥-|
□④⑥⑦ |⑦-⑧-|
61
□⑧①⑧ |--①-|
⑤④③□ |②-③④|
□⑦⑧① |⑤-⑥-|
②□⑥□ |⑦-⑧-|
62
②⑤②⑤ |--①-|
□③□② |--②-|
①④□□ |--③-|
③①③① |④-⑤-|
63
□□□□ |--①②|
⑦□□③ |③-④-|
⑨⑥②④ |--⑤⑥|
⑤④⑧① |⑦-⑧⑨|
64
③①①⑥ |①-②-|
□□⑤③ |--③-|
□□②④ |--④⑤|
⑦□□⑦ |⑥-⑦-|
65
②②⑤⑧ |--①-|
⑨□⑦④ |②-③④|
①①□⑥ |-⑤⑥⑦|
⑨□③□ |⑧-⑨-|
66
②⑦④□ |--①-|
□②□⑥ |②-③④|
①⑤□□ |--⑤-|
□①⑦③ |⑥-⑦-|
67
②⑦②□ |--①-|
⑦□④□ |②-③-|
①⑤①⑦ |--④⑤|
⑥③⑦③ |⑥-⑦-|
68
②□□⑤ |--①-|
□□④② |--②-|
②③①□ |--③④|
⑥□⑥② |⑤-⑥-|
69
□⑥①⑦ |--①-|
③⑦⑤③ |②-③-|
③④⑦③ |--④⑤|
⑦②□□ |⑥-⑦-|
70
①□③⑤ |--①-|
③⑥⑥□ |②-③-|
④⑥⑥③ |--④-|
□③□② |⑤-⑥-|
71
□□□□ |----|
③□□□ |--①-|
②□□□ |--②-|
①□□□ |--③-|
72
①③③① |----|
□①①□ |--①-|
②④④② |--②-|
④□□④ |③-④-|
73
③□□③ |--①-|
②□⑤④ |②-③-|
⑦⑥□□ |④-⑤-|
□□①□ |⑥-⑦-|
74
⑤①①⑤ |--①-|
□□□□ |--②-|
□□④□ |--③-|
③②②□ |④-⑤-|
75
□⑦⑦□ |--①-|
②□③④ |②--③|
①⑥□① |④-⑤-|
□□⑤□ |⑥-⑦-|
76
④□□④ |--①-|
□③③⑤ |②-③-|
⑥□②⑥ |--④-|
①□□① |⑤-⑥-|
77
⑩④⑤⑩ |--①-|
②⑥⑦□ |②-③-|
□⑧⑨□ |④⑤⑥⑦|
□①①③ |⑧⑨⑩-|
78
□⑤⑤□ |--①②|
②⑩⑩① |③④⑤-|
④□□③ |-⑥⑦⑧|
⑥⑦⑧⑨ |⑨-⑩-|
79
③□□⑤ |--①②|
⑦□□② |③-④-|
①④⑥□ |⑤-⑥-|
□⑧□□ |⑦-⑧-|
80
□⑤④□ |--①-|
③①①⑤ |--②-|
⑤③□④ |--③-|
②□⑤② |④-⑤-|
81
⑤⑧□□ |--①②|
⑧③⑥⑦ |③-④-|
□⑤②⑥ |⑤-⑥-|
④①⑦④ |⑦-⑧-|
82
④□①□ |--①-|
□①□□ |--②-|
③②①⑤ |--③-|
②①⑤② |④-⑤-|
83
□□④① |--①-|
③□①□ |--②-|
□⑤□□ |③-④-|
□②□⑥ |⑤-⑥-|
84
□□□⑧ |--①-|
⑤④③② |②③④⑤|
①⑦①⑥ |⑥-⑦-|
⑨⑨⑨⑨ |⑧-⑨-|
85
□□□□ |--①-|
□②③□ |②-③-|
①□□□ |----|
□□□□ |----|
最終更新:2024年07月14日 19:00