アットウィキロゴ
1
①①①① |①---|
□□□□ |--②-|
□②③□ |③---|
□□□□ |----|

2
③□②□ |①---|
□④□② |②---|
①□□□ |③-④-|
□①□□ |⑤-⑥-|

□□□□
□□□□
⑤□□□
□⑥□□

3
□⑥□① |①---|
□□⑤□ |②-③-|
□④□① |④-⑤-|
②□③□ |⑥-⑦-|

□□□⑦
□□□□
□□□□
□□□□

4
①⑨⑩⑩ |①②③④|
□⑤⑧⑪ |⑤⑥⑦⑧|
③□□② |⑨---|
□⑦④⑥ |⑩-⑪-|

5
□□□□ |①---|
②②□□ |②-③-|
③□①① |④---|
④④⑤⑤ |⑤-⑥-|

□□□□
□□□□
□□□⑥
□□□□

6
②□③② |①---|
⑥④①① |②---|
□□⑤□ |③④⑤-|
□□□⑦ |⑥-⑦-|

7
⑤□□□ |①---|
④④①⑦ |②-③-|
③①⑥⑥ |④-⑤-|
②②□□ |⑥-⑦-|

8
□□①① |①--②|
③③□□ |--③-|
□□□□ |-④--|
②④②④ |⑤-⑥-|

□⑤□⑤
□□□⑥
□□□□
□□□□

9
□□□□ |①---|
②□②□ |②-③-|
③①□① |④---|
④⑤④⑤ |⑤-⑥-|

□□□□
□□□□
□□□⑥
□□□□

10
③③③③ |①---|
□①□① |②---|
□②②□ |③---|
□□□□ |--④⑤|

□□□□
□□⑤④
□□□□
□□□□

11
□□⑦□ |①②③-|
⑧⑥□□ |④-⑤⑥|
②①⑤⑨ |⑦-⑧-|
④⑩□③ |⑨-⑩-|

12
①⑤④① |①---|
③⑦⑥② |--②③|
□⑨⑧□ |④⑤⑥⑦|
□⑪⑩□ |⑧⑨⑩⑪|

13
□□□□ |①--②|
□□□③ |--③-|
⑤□□② |----|
④□□① |④--⑤|

14
□□②□ |--①-|
①③□□ |----|
□□④□ |②-③-|
□⑤□□ |④-⑤-|

15
□□□□ |①--②|
□□□③ |--③-|
⑤□□② |----|
④□□① |④--⑤|

16
□□②□ |--①-|
①③□□ |----|
□□④□ |②-③-|
□⑤□□ |④-⑤-|

17
□□□□ |①--②|
□□⑥③ |--③-|
⑦□④② |--④-|
⑤⑤□① |⑤-⑥⑦|

18
⑦⑥⑤④ |①-②-|
②②⑨⑧ |--③-|
□③□□ |④⑤⑥⑦|
□□①□ |⑧⑨⑩⑪|

□□□□
⑪⑩□□
□□□□
□□□□

19
④□□③ |①---|
□□□□ |②-③-|
□⑤②□ |----|
□□①① |④-⑤-|

20
□④□□ |①---|
②□⑤⑦ |②-③-|
□⑥□□ |--④⑤|
①③□□ |⑥-⑦-|

21
④□□③ |①---|
□□□□ |②-③-|
□⑤②□ |----|
①□□① |④-⑤-|

22
□④□□ |①---|
②③□⑤ |②-③-|
④⑦□□ |--④-|
①□⑥□ |⑤-⑥⑦|

23
④□③□ |①--②|
□②①⑦ |③-④-|
⑦□⑥④ |-⑤⑥-|
□⑤□□ |⑦-⑧⑨|

□⑨□□
□□⑧□
□□□□
□□□□

24
□⑦②□ |--①-|
①③⑥⑤ |②③④-|
□□④① |⑤-⑥⑦|
⑤□□□ |--⑧-|

□□□□
⑧□□□
□□□□
□□□□

25
□□□□ |①--②|
⑦⑦⑤③ |--③-|
⑥⑥□② |--④⑤|
□④□① |⑥--⑦|

26
①①②□ |--①-|
□③□② |----|
③□□□ |②---|
□□□□ |③---|

27
⑤③□⑤ |①---|
②□④□ |②-③-|
□③①□ |④---|
②□④① |⑤---|

28
□□⑥⑩ |①-②-|
⑤③□④ |③-④-|
□⑨②□ |⑤⑥⑦⑧|
①⑦⑧□ |⑨⑩⑪⑫|

□□□□
□□□□
□□□⑫
⑪□□□

29
①①③□ |①---|
□④□② |②-③-|
□□③□ |④---|
□④□② |⑤---|

⑤□□⑤
□□□□
□□□□
□□□□

30
⑩⑥□□ |①-②-|
④□③⑤ |③-④-|
□②⑨□ |⑤⑥⑦⑧|
□⑧⑦① |⑨⑩⑪⑫|

□□□□
□□□□
⑫□□□
□□□⑪

31
□⑧①① |①--②|
②□⑦③ |--③-|
□⑥□③ |④-⑤⑥|
④□⑤⑤ |⑦⑧⑨-|

□□□⑨
□□□□
□□□□
□□□□

32
④⑤□④ |--①-|
③②⑤① |-②--|
①⑤④② |③--④|
②①③③ |--⑤-|

33
□□①□ |①--②|
□②□① |----|
①□③□ |③---|
□①□③ |----|

34
⑨⑩⑩⑩ |①②③④|
③⑦⑧⑪ |⑤⑥⑦⑧|
⑨①□④ |⑨---|
□⑤②⑥ |⑩-⑪-|

35
□□□□ |①---|
②②②□ |②-③-|
③①①① |④---|
④④④□ |⑤-⑥-|

□□□□
□□□⑥
□⑤⑤⑤
□□□□

36
②①①① |①---|
□③③□ |②---|
□□□□ |③---|
□③③② |④-⑤-|

□④④④
□□□⑤
□□□□
□□□□

37
⑤□□□ |①---|
④④④□ |②-③-|
③①①① |④-⑤-|
②②②□ |⑥-⑦-|

□□□□
□□□⑦
□⑥⑥⑥
□□□□

38
③①①① |①---|
④③④④ |--②-|
②□⑤□ |③---|
□②□□ |④-⑤-|

39
②②□② |①---|
□③□□ |②-③-|
④④□④ |④---|
①□①① |⑤-⑥-|

□□□□
□□□□
□□⑥□
⑤□⑤⑤

40
④④④④ |①-②-|
①②①① |③---|
③③⑤③ |④---|
□□□□ |--⑤-|

41
□□②□ |①---|
③□③③ |--②-|
□④□□ |③-④-|
①□①① |⑤-⑥-|

□□□□
□□□□
□□□□
⑤⑤⑥⑤

42
③③③③ |①---|
□②②□ |--②-|
①□①① |③---|
□□□□ |----|

43
□□□□ |①---|
①□□① |--②-|
□②□□ |----|
①□③① |③---|

44
①①□② |--①-|
⑨③⑥⑫ |②③④⑤|
⑬⑦④⑧ |⑥⑦⑧⑨|
⑪⑤⑩□ |⑩⑪⑫⑬|

45
②②□□ |①---|
□□□□ |--②-|
□□④□ |-----③|
□③□① |④---|

46
④□⑥④ |①②③-|
③⑦□⑥ |----|
⑦⑤□② |④-⑤-|
①□□□ |⑥-⑦-|

47
□□□□ |①---|
③③□□ |--②-|
□□①□ |----|
②②□① |③-④-|

□□□□
□□□□
□□□□
□□□④

48
⑦③②④ |①-②③|
⑪⑬⑧⑫ |④⑤⑥⑦|
①⑨⑥⑩ |⑧⑨⑩⑪|
⑮⑤⑭□ |⑫⑬⑭⑮|

49
□①①③ |①---|
□□③□ |--②-|
□□□□ |----|
□②□② |③---|

50
①⑤□□ |---①②③|
②□□⑤ |④---|
③□□□ |⑤---|
④□⑥⑥ |⑥---|

51
①□⑥① |①-②③|
□②③□ |④-⑤⑥|
⑨④⑩□ |⑦⑧⑨⑩|
⑦⑤⑧□ |-⑪⑫⑬|

□⑫□⑪
□□□⑬
□□□□
□□□□

52
②⑫⑥⑪ |①-②③|
⑨①⑩□ |④-⑤⑥|
□④□③ |⑦⑧⑨⑩|
⑦⑤⑧□ |-⑪⑫⑬|

□□□□
□□□□
□□□⑬
□□□□

53
②⑫⑥⑪ |①-②③|
□④□③ |④-⑤⑥|
⑨①⑩□ |⑦⑧⑨⑩|
⑦⑤⑧□ |-⑪⑫⑬|

□□□□
□□□⑬
□□□□
□□□□

54
②□⑥□ |①-②③|
⑨①⑩□ |④-⑤⑥|
⑦□⑧③ |⑦⑧⑨⑩|
④⑤□□ |-⑪⑫⑬|

□□□⑬
□⑫□⑪
□□□□
□□□□

55
②①⑫⑪ |①-②③|
□□⑥□ |④-⑤⑥|
④⑤□③ |⑦⑧⑨⑩|
⑦⑧⑨⑩ |-⑪⑫⑬|

□⑬□□
□□□□
□□□□
□□□□

56
①⑬□⑪ |①-②③|
□④⑫⑥ |④-⑤⑥|
②⑧③⑩ |⑦⑧⑨⑩|
⑦⑤⑨□ |-⑪⑫⑬|

57
②⑬⑫⑪ |①-②③|
①⑤□③ |④-⑤⑥|
④□⑥□ |⑦⑧⑨⑩|
⑦⑧⑨⑩ |-⑪⑫⑬|

58
①□□⑩ |①②③④|
⑨⑤⑦③ |⑤⑥⑦⑧|
②⑨□④ |⑨---|
□⑥⑧□ |⑩-⑪-|

□□□□
□□□⑪
□□□□
□□□□

59
②②②□ |①---|
③□□□ |②-③-|
④□□① |④---|
□⑤⑤⑤ |⑤-⑥-|

□□□□
□□□□
□□□⑥
□□□□

60
②②②□ |①---|
□□□① |②---|
③□□□ |③---|
□□□□ |④-⑤-|

□□□□
□④④④
□□□⑤
□□□□

61
④④④⑤ |①---|
③⑥⑥⑥ |②-③-|
②②②⑦ |④-⑤-|
□□□① |⑥-⑦-|

62
④④④□ |①---|
⑤③③③ |②---|
②②②□ |③---|
□①①① |④-⑤-|

63
□□□□ |①---|
□②②② |②-③-|
①①①③ |④---|
□④④④ |⑤-⑥-|

□□□□
⑥□□□
⑤⑤⑤□
□□□□

64
①①①□ |①---|
④③③□ |②---|
□③③⑤ |③---|
□②②② |--④⑤|

65
⑤④③② |①---|
⑧⑧⑩□ |②③④⑤|
⑨□⑥□ |⑥-⑦-|
①□⑦⑦ |⑧-⑨⑩|

66
⑤□③③ |①--②|
□□⑦④ |③-④⑤|
□②⑥⑥ |⑥--⑦|
①①□□ |⑧-⑨⑩|

□□□□
□□□□
⑨□□□
⑧⑧□⑩

67
③⑦④④ |①-②③|
①①□⑥ |④⑤⑥⑦|
□⑤⑧⑧ |⑧--⑨|
⑨⑨②□ |----|

68
⑧⑫①□ |①②③④|
②□⑨⑤ |⑤⑥⑦⑧|
⑥④⑬⑪ |⑨⑩⑪⑫|
⑩□⑦③ |⑬⑭⑮⑯|

□□□⑮
⑭□□□
□⑯□□
□□□□

69
⑩⑩⑦⑫ |①②③④|
⑪⑧⑤① |⑤⑥⑦⑧|
④□□⑨ |⑨---|
⑥②□③ |⑩-⑪⑫|

70
□□□⑦ |①--②|
□⑤③③ |③-④⑤|
①①□④ |⑥--⑦|
□②⑥⑥ |⑧-⑨⑩|

□□□□
⑨□□□
⑧⑧⑩□
□□□□

71
①①②□ |①-②③|
□⑤⑧⑧ |④⑤⑥⑦|
⑨⑨□⑥ |⑧--⑨|
③⑦④④ |----|

72
⑧⑫①□ |①②③④|
②⑥⑨⑤ |⑤⑥⑦⑧|
□□⑬⑪ |⑨⑩⑪⑫|
⑩④⑦③ |⑬⑭⑮⑯|

□□□⑮
⑭□□□
□⑯□□
□□□□

73
□⑨⑨□ |①②③④|
□④⑤③ |⑤⑥⑦⑧|
⑧□□□ |⑨---|
⑥②⑦① |----|

74
①□□① |①---|
□□□④ |②-③-|
□③②□ |----|
□□④□ |④---|

75
□①②□ |--①-|
□③□□ |----|
①□④□ |②-③-|
□⑤□□ |④-⑤-|

76
□□□□ |①--②|
③□□③ |--③-|
②⑤□② |--④⑤|
①□④① |⑥--⑦|

□□□□
□□⑥□
⑦□□⑦
⑥⑦□⑥

77
□①①□ |--①-|
①□□① |----|
□□□□ |----|
□□□□ |----|
最終更新:2024年07月14日 19:01