アットウィキロゴ
6次の隔たり
BEMANI Sound Team "Sota F. Remixed by Coyaan”

EXTREME

Level: 9.1
BPM:134
Notes:765

1
⑧□□④ |①②-③|
□③⑥□ |④-⑤⑥|
□⑤②□ |--⑦-|
①⑦□⑨ |⑧-⑨-|

2
□□⑩④ |①②-③|
⑧③⑥□ |④-⑤⑥|
□⑤②□ |-⑦⑧-|
①⑨⑦□ |⑨-⑩-|

3
⑧□□④ |①②-③|
□③⑥□ |④-⑤⑥|
□⑤②□ |--⑦-|
①⑦□⑨ |⑧-⑨-|

4
⑦⑦④④ |①②-③|
⑨③⑥□ |④-⑤⑥|
□⑤②□ |⑦⑧⑨-|
①⑩⑧□ |⑩-⑪-|

□□⑪□
□□□□
□□□□
□□□□

5
⑧□□④ |①②-③|
□③⑥□ |④-⑤⑥|
□⑤②□ |--⑦-|
①⑦□⑨ |⑧-⑨-|

6
□□⑩④ |①②-③|
⑧③⑥□ |④-⑤⑥|
□⑤②□ |-⑦⑧-|
①⑨⑦□ |⑨-⑩-|

7
⑧□□④ |①②-③|
□③⑥□ |④-⑤⑥|
□⑤②□ |--⑦-|
①⑦□⑨ |⑧-⑨-|

8
⑨⑬④④ |①②-③|
□③⑥⑩ |④-⑤⑥|
⑦⑤②⑫ |⑦⑧⑨⑩|
①⑪⑧□ |⑪⑫⑬⑭|

□□⑭□
□□□□
□□□□
□□□□

9
⑧⑧□④ |①②-③|
□③⑥□ |④-⑤⑥|
□⑤②□ |--⑦-|
①⑦□⑨ |⑧-⑨-|

10
⑦⑦□④ |①②-③|
⑨③⑥□ |④-⑤⑥|
□⑤②□ |⑦⑧⑨-|
①□⑧□ |⑩-⑪-|

□□⑪□
□□□□
□□□□
⑩⑩□□

11
⑤③⑤③ |①-②-|
⑧⑥⑧⑥ |③-④-|
②④②④ |⑤-⑥-|
⑦□⑦① |⑦-⑧-|

12
⑤②⑤② |--①-|
⑥④⑥④ |②-③-|
①③①③ |④-⑤-|
□⑦□⑦ |⑥-⑦-|

13
⑧⑧□④ |①②-③|
□③⑥□ |④-⑤⑥|
□⑤②□ |--⑦-|
①⑦□⑨ |⑧-⑨-|

14
⑦⑦□④ |①②-③|
⑨③⑥□ |④-⑤⑥|
□⑤②□ |⑦⑧⑨-|
①□⑧□ |⑩-⑪-|

□□⑪□
□□□□
□□□□
⑩⑩□□

15
⑤③⑤③ |①-②-|
⑧⑥⑧⑥ |③-④-|
②④②④ |⑤-⑥-|
⑦□⑦① |⑦-⑧-|

16
□②□② |--①-|
⑥□⑥□ |②-③-|
①⑤①⑤ |④-⑤-|
④③④③ |⑥-⑦-|

□⑦□⑦
□□□□
□□□□
□□□□

17
⑥□④⑧ |①-②③|
□⑨□⑩ |④-⑤⑥|
⑤□□⑦ |⑦⑧⑨-|
②③□① |⑩⑪⑫⑬|

□□□□
□□□□
□□□□
□⑬⑫⑪

18
□□④□ |①-②③|
□⑥□⑦ |④-⑤⑥|
②③⑤□ |-⑦⑧-|
①⑧□□ |⑨---|

⑨□□⑨
□□□□
⑨□□⑨
□□□□

19
⑥②□□ |①-②-|
②④□⑦ |③-④-|
⑧⑥①⑤ |⑤-⑥-|
④⑧□③ |⑦-⑧-|

20
④⑤□③ |①-②-|
②□③□ |③-④⑤|
□□①□ |--⑥-|
②□□□ |⑦-⑧-|

□□□⑧
□□□□
⑦□⑥⑧
□□□⑥

21
□□②⑧ |①-②-|
⑦□④② |③-④-|
⑤①⑧⑥ |⑤-⑥-|
③□⑥④ |⑦-⑧-|

22
□□□□ |①-②-|
□□②④ |③-④-|
⑤⑥⑦⑧ |⑤⑥⑦⑧|
③①④② |⑨---|

□□□□
□□□□
□□□□
□⑨□□

23
□□②⑥ |①-②-|
①□④② |③-④-|
⑤□⑥□ |⑤-⑥-|
③□□④ |⑦-⑧-|

□□□□
⑦□□□
□□□⑧
□□⑧□

24
③□⑤④ |①-②-|
□③□② |③-④⑤|
□①□□ |--⑥-|
□□□② |⑦-⑧-|

⑧□□□
□□□□
⑧⑥□⑦
⑥□□□

25
⑧②□□ |①-②-|
②④□⑦ |③-④-|
⑥⑧①⑤ |⑤-⑥-|
④⑥□③ |⑦-⑧-|

26
⑧⑦□□ |①-②-|
④②□□ |③-④-|
⑧⑦⑥⑤ |⑤⑥⑦⑧|
②④①③ |-⑨⑩-|

□□□□
□□⑨⑩
□□□□
□□⑨⑩

27
⑨□⑧⑤ |①-②③|
④⑦⑦□ |④⑤⑥⑦|
⑥□□③ |-⑧⑨⑩|
①②□⑩ |⑪⑫⑬⑭|

□□□□
□□□⑭
□⑬⑫□
⑪□□□

28
⑤③□④ |①②③④|
⑨⑦⑦□ |⑤⑥⑦-|
①□⑧② |-⑧⑨⑩|
⑪□⑥⑩ |⑪⑫⑬⑭|

□⑬⑭□
□□□□
□□□⑫
□□□□

29
⑩□⑨⑥ |①②③④|
⑦⑧⑧④ |⑤⑥⑦⑧|
③⑤□□ |-⑨⑩⑪|
□①②⑪ |⑫⑬⑭⑮|

□□□□
□□□□
⑭□□⑮
□⑫⑬□

30
⑤⑤③③ |①-②③|
④④②② |-④⑤-|
⑦①①⑥ |-⑥⑦-|
□⑦⑥□ |⑧---|

□□□□
□□⑧⑧
□□□□
□□□□

31
⑤□④⑨ |①-②③|
③⑦⑦□ |④⑤⑥⑦|
⑧□②⑥ |-⑧⑨⑩|
□⑩⑪① |⑪⑫⑬⑭|

□□□□
⑫□□⑬
□⑭□□
□□□□

32
④⑫⑤⑪ |①②③④|
⑧⑦⑦⑨ |⑤⑥⑦-|
⑥□⑬③ |-⑧⑨⑩|
②⑩□① |⑪⑫⑬⑭|

□□□□
□□□□
□□□□
⑭□□□

33
④⑨⑦⑩ |①②③④|
⑥⑧⑧□ |⑤⑥⑦⑧|
□②□③ |-⑨⑩⑪|
⑪□①⑤ |⑫⑬⑭⑮|

□□□□
□□□□
⑮□□⑭
□⑬⑫□

34
③③⑤⑤ |①-②③|
②②④④ |-④⑤-|
⑥①①⑦ |-⑥⑦-|
⑧⑥⑦□ |⑧⑨⑩⑪|

□□□□
⑨⑩⑪□
□□□□
□□□□

35
□□⑥⑤ |①---|
□④□① |--②③|
⑦□③⑦ |④-⑤-|
□②□□ |⑥-⑦-|

36
□□□⑥ |----|
⑤□③□ |--①②|
□②□□ |③-④-|
①□□④ |⑤-⑥-|

37
□④④□ |①---|
□□□③ |②-③-|
②□□□ |--④-|
□①①□ |----|

38
①□□① |①---|
□□③④ |②-③-|
⑤□□③ |--④-|
②⑤□□ |⑤---|

39
⑤①①□ |①---|
□□④□ |--②③|
□③□□ |④-⑤-|
□□②□ |⑥-⑦-|

□⑥□□
□□□□
⑦□□⑦
□□□□

40
⑥□□□ |----|
□③□⑤ |--①②|
□□②□ |③-④-|
④□□① |⑤-⑥-|

41
□④④□ |①---|
③□□□ |②-③-|
□□□② |--④-|
□①①□ |----|

42
①□□① |①---|
②□□□ |②-③-|
□③□④ |--④-|
□□⑤□ |⑤---|

43
□□□⑥ |①---|
□①①□ |--②③|
②③④□ |④-⑤-|
⑤□□□ |⑥-⑦-|

□□□□
□⑦⑦□
□□□□
□□□□

44
□□⑤□ |----|
④□□□ |--①②|
□□□⑥ |③-④-|
□③②① |⑤-⑥-|

45
□③④④ |①---|
□①①□ |②-③-|
□□②□ |--④-|
□□□□ |----|

46
□④□□ |①---|
①①③□ |②-③-|
□②□□ |--④-|
□□⑤□ |⑤---|

47
①④□□ |①---|
□□□③ |----|
①□□□ |②-③-|
□□②□ |④-⑤-|

□□□□
□□□□
⑤□□□
□□□□

48
□□⑥□ |----|
⑤□□③ |--①②|
□□□② |③-④-|
□④□① |⑤-⑥-|

49
④□□□ |①---|
④□□③ |②-③-|
②①①□ |--④-|
□□□□ |----|

50
③□①① |①---|
□□□□ |②-③-|
□□□□ |--④-|
□②□□ |⑤⑥⑦⑧|

□⑧□④
□□⑦□
□⑥□□
□□⑤□

51
⑧□⑨⑧ |①-②③|
②⑥⑥① |④-⑤-|
□□⑦③ |⑥-⑦⑧|
④□⑤① |-⑨⑩-|

□□□□
□□□□
⑩□□⑩
□□□□

52
□②□□ |①-②③|
①④□① |-④⑤-|
□□⑥□ |--⑥-|
⑤③③⑤ |⑦-⑧-|

□□□⑧
⑦□□□
□□□□
□□□□

53
①⑥⑥□ |①-②③|
⑧⑨②⑧ |④-⑤-|
①③⑦□ |⑥-⑦⑧|
⑤□④□ |-⑨⑩-|

□□□□
□□□□
□□□□
□⑩⑩□

54
①□⑥① |①---|
⑤⑦⑩④ |②③④⑤|
③⑪⑧□ |⑥⑦⑧⑨|
□⑨□② |⑩⑪⑫⑬|

□⑬□⑫
□□□□
□□□□
□□□□

55
⑧□⑨⑧ |①-②③|
②⑥⑥① |④-⑤-|
□□⑦③ |⑥-⑦⑧|
④□⑤① |-⑨⑩-|

□□□□
□□□□
⑩□□⑩
□□□□

56
□②□□ |①-②③|
①④□① |-④⑤-|
□□⑥□ |--⑥-|
⑤③③⑤ |⑦-⑧-|

□□□⑧
⑦□□□
□□□□
□□□□

57
①⑥⑥□ |①-②③|
□⑦②□ |④-⑤-|
①③□□ |⑥-⑦⑧|
⑤□④□ |-⑨⑩-|

□□□⑨
□□□□
⑧□□⑧
□⑩⑩□

58
□□□□ |①---|
①□□① |----|
□□□□ |----|
①□□① |----|

59
⑯⑩⑬⑤ |①②③④|
⑥②③⑨ |⑤⑥⑦⑧|
⑫④①⑮ |⑨⑩⑪⑫|
⑧⑭⑦⑪ |⑬⑭⑮⑯|

60
⑧□⑦① |①②③④|
□④□⑦ |⑤⑥⑦-|
⑩②⑤⑨ |-⑧⑨⑩|
⑥□③□ |⑪⑫⑬⑭|

□⑫□⑪
□□□□
□□□□
⑭□⑬□

61
□⑫⑤□ |①②③④|
⑥②③⑨ |⑤⑥⑦⑧|
⑩④①□ |⑨⑩⑪⑫|
□⑧⑪⑦ |⑬⑭⑮⑯|

□□□⑮
□⑯□□
□□⑬□
⑭□□□

62
⑧□①⑨ |①---|
⑥□□⑦ |②③④⑤|
⑫④⑤① |⑥⑦⑧⑨|
⑩②③⑪ |⑩⑪⑫⑬|

□□□□
□□□□
□□□⑬
□□□□

63
⑤⑬⑩⑯ |①②③④|
⑨③②⑥ |⑤⑥⑦⑧|
⑮①④⑫ |⑨⑩⑪⑫|
⑪⑦⑭⑧ |⑬⑭⑮⑯|

64
①⑦□⑧ |①②③④|
⑦□④□ |⑤⑥⑦-|
⑨⑤②⑩ |-⑧⑨⑩|
□③□⑥ |⑪⑫⑬⑭|

⑪□⑫□
□□□□
□□□□
□⑬□⑭

65
□⑤⑫□ |①②③④|
⑨③②⑥ |⑤⑥⑦⑧|
□①④⑩ |⑨⑩⑪⑫|
⑦⑪⑧□ |⑬⑭⑮⑯|

⑮□□□
□□⑯□
□⑬□□
□□□⑭

66
④①□④ |①---|
②□□③ |----|
①②③□ |②--③|
□□□□ |--④-|

67
□□□□ |①---|
□①①□ |----|
①□□① |----|
□①①□ |----|
最終更新:2024年08月15日 18:10